<?xml version="1.0" standalone="no"?>
<!DOCTYPE svg PUBLIC "-//W3C//DTD SVG 1.1//EN" "http://www.w3.org/Graphics/SVG/1.1/DTD/svg11.dtd" >
<svg xmlns="http://www.w3.org/2000/svg" xmlns:xlink="http://www.w3.org/1999/xlink" version="1.1">
<metadata>
Created by Christoph Koeberlin (http://christoph.koe.berlin)
Copyright (c) 2014 Swiss Typefaces Sa`rl. All rights reserved.
</metadata>
<defs>
<font id="Font" horiz-adv-x="646" >
  <font-face 
    font-family="Font"
    font-weight="400"
    font-stretch="normal"
    units-per-em="1000"
    panose-1="2 11 5 9 0 0 0 0 0 0"
    ascent="800"
    descent="-200"
    x-height="538"
    cap-height="725"
    bbox="-12 -221 696 921"
    underline-thickness="70"
    underline-position="-40"
    unicode-range="U+000D-FB02"
  />
<missing-glyph 
d="M73 725h500v-725h-500v725zM92 696v-667l220 333zM554 29v667l-221 -334zM106 19h433l-216 327zM323 378l216 328h-433z" />
    <glyph glyph-name=".notdef" 
d="M73 725h500v-725h-500v725zM92 696v-667l220 333zM554 29v667l-221 -334zM106 19h433l-216 327zM323 378l216 328h-433z" />
    <glyph glyph-name=".null" 
 />
    <glyph glyph-name="nonmarkingreturn" unicode="&#xd;" 
 />
    <glyph glyph-name="space" unicode=" " 
 />
    <glyph glyph-name="exclam" unicode="!" 
d="M293 212l-18 294v219h96v-219l-20 -294h-58zM265 0v115h115v-115h-115z" />
    <glyph glyph-name="quotedbl" unicode="&#x22;" 
d="M298 725l-20 -253h-62l-20 253h102zM451 725l-20 -253h-62l-20 253h102z" />
    <glyph glyph-name="numbersign" unicode="#" 
d="M211 527l27 198h74l-27 -198h124l27 198h74l-27 -198h135l-10 -71h-135l-23 -163h134l-9 -71h-135l-30 -222h-74l30 222h-124l-30 -222h-74l30 222h-141l10 71h141l23 163h-141l10 71h141zM252 293h124l23 163h-124z" />
    <glyph glyph-name="dollar" unicode="$" 
d="M354 822v-86q38 -4 73.5 -18t64 -39t47.5 -60.5t24 -83.5h-94q-3 30 -14 52t-26.5 36.5t-35 22.5t-39.5 12v-241l5 -1q36 -9 73 -23t68 -38t50.5 -60.5t19.5 -90.5q0 -50 -16.5 -89t-45.5 -66t-68.5 -42.5t-85.5 -18.5v-85h-55v86q-50 4 -91.5 23.5t-71.5 50.5
t-47.5 73.5t-18.5 93.5h94q5 -73 40 -113.5t95 -49.5v268l-33 9q-32 8 -63.5 24t-56 40.5t-40 57.5t-15.5 75q0 48 18 83.5t47 59.5t66.5 37t76.5 16v85h55zM477 195q0 54 -34.5 83t-88.5 43v-255q59 6 91 42.5t32 86.5zM185 548q0 -48 29 -75.5t73 -38.5l12 -3v229
q-18 -2 -38 -8t-37 -19t-28 -33.5t-11 -51.5z" />
    <glyph glyph-name="percent" unicode="%" 
d="M171 378q-70 0 -104.5 50t-34.5 130q0 82 34.5 131t104.5 49q71 0 105.5 -49t34.5 -131q0 -40 -8.5 -73t-26 -57t-44 -37t-61.5 -13zM171 439q33 0 51 30.5t18 88.5q0 60 -18 89.5t-51 29.5q-68 0 -68 -119q0 -58 17 -88.5t51 -30.5zM34 0l500 725h80l-501 -725h-79z
M472 -13q-71 0 -105.5 50t-34.5 131q0 82 34.5 131t105.5 49q70 0 104.5 -49t34.5 -131q0 -81 -34.5 -131t-104.5 -50zM472 48q33 0 50.5 30.5t17.5 89.5q0 118 -68 118q-69 0 -69 -118q0 -59 17 -89.5t52 -30.5z" />
    <glyph glyph-name="ampersand" unicode="&#x26;" 
d="M252 -13q-56 0 -97.5 18.5t-69 48.5t-41.5 68.5t-14 78.5q0 38 11.5 70.5t31.5 59t48 47t60 34.5q-23 35 -40.5 77.5t-17.5 86.5q0 37 14.5 67t39 51t56.5 32.5t66 11.5q31 0 62 -8t56 -26.5t41 -48.5t16 -73q0 -64 -42 -112.5t-112 -80.5l117 -146q8 32 11.5 69t2.5 79
h85q2 -60 -7.5 -117.5t-29.5 -107.5l134 -166h-121l-63 78q-35 -42 -84 -66.5t-113 -24.5zM258 67q86 0 138 77l-168 209q-47 -23 -74 -61t-27 -89q0 -31 10.5 -56t28.5 -43t41.5 -27.5t50.5 -9.5zM216 576q0 -26 11.5 -55.5t43.5 -71.5q49 22 82.5 54.5t33.5 74.5
q0 21 -7.5 36.5t-19.5 25t-27.5 14.5t-31.5 5q-15 0 -30.5 -5t-27.5 -15t-19.5 -26t-7.5 -37z" />
    <glyph glyph-name="quotesingle" unicode="'" 
d="M374 725l-20 -253h-62l-20 253h102z" />
    <glyph glyph-name="parenleft" unicode="(" 
d="M216 275q0 76 13 143.5t33 124.5t44 103t47 79h76q-25 -40 -46.5 -89t-38 -105.5t-26 -121t-9.5 -134.5q0 -71 9.5 -135t26 -120.5t38 -105.5t46.5 -89h-76q-23 33 -47 79t-44 103t-33 124.5t-13 143.5z" />
    <glyph glyph-name="parenright" unicode=")" 
d="M430 275q0 -76 -13 -143.5t-33.5 -124.5t-45 -103t-46.5 -79h-75q49 81 84 194.5t35 255.5t-35 255.5t-84 194.5h75q22 -33 46.5 -79t45 -103t33.5 -124.5t13 -143.5z" />
    <glyph glyph-name="asterisk" unicode="*" 
d="M352 605l113 43l23 -56l-115 -39l69 -97l-46 -36l-74 101l-68 -101l-53 35l70 98l-113 39l20 56l113 -43v120h61v-120z" />
    <glyph glyph-name="plus" unicode="+" 
d="M277 0v226h-226v86h226v226h92v-226h226v-86h-226v-226h-92z" />
    <glyph glyph-name="comma" unicode="," 
d="M265 115h115v-123l-61 -131h-58l53 139h-49v115z" />
    <glyph glyph-name="hyphen" unicode="-" 
d="M164 231v86h318v-86h-318z" />
    <glyph glyph-name="period" unicode="." 
d="M265 0v115h115v-115h-115z" />
    <glyph glyph-name="slash" unicode="/" 
d="M135 0l285 725h91l-285 -725h-91z" />
    <glyph glyph-name="zero" unicode="0" 
d="M322 -13q-69 0 -117 27.5t-78 77.5t-44 120t-14 154t14 153t44 117.5t78 75t117 26.5t117 -26.5t78.5 -75t44.5 -117.5t14 -153t-14 -154t-44.5 -120t-78.5 -77.5t-117 -27.5zM162 366v-19t1 -18l313 143q-24 188 -154 188q-82 0 -121 -72.5t-39 -221.5zM322 66
q82 0 121.5 75.5t39.5 224.5v16t-1 16l-313 -145q26 -187 153 -187z" />
    <glyph glyph-name="one" unicode="1" 
d="M387 725v-646h152v-79h-429v79h185v488h-185v63q45 1 79.5 5t60.5 14t44.5 28t32.5 48h60z" />
    <glyph glyph-name="two" unicode="2" 
d="M334 738q48 0 88.5 -13t70 -38t46.5 -61.5t17 -82.5q0 -63 -28 -122.5t-76 -117t-111 -113.5t-132 -111h360v-79h-489v79q91 71 161.5 132.5t118.5 116.5t73 105t25 98q0 57 -31.5 93t-93.5 36q-28 0 -54 -9t-46.5 -29t-32.5 -51t-13 -76h-94q-1 52 16 96.5t48.5 77
t76.5 51t100 18.5z" />
    <glyph glyph-name="three" unicode="3" 
d="M320 66q69 0 112 36t43 101q0 38 -15.5 64.5t-42 43t-62.5 24t-78 7.5h-14v81h11q90 0 136.5 30t46.5 93q0 27 -10.5 48.5t-28.5 36t-42.5 22t-52.5 7.5q-69 0 -106.5 -39.5t-42.5 -100.5h-94q4 48 23 88t50.5 69t75.5 45t97 16q44 0 85 -10t73 -32t51.5 -57t19.5 -84
q0 -56 -29 -100.5t-84 -67.5q38 -13 63.5 -33t40.5 -44t21 -51t6 -55q0 -54 -21.5 -94.5t-57.5 -68t-81.5 -41t-93.5 -13.5q-60 0 -105.5 19t-76 51t-47.5 73.5t-20 85.5h93q8 -66 46 -108t111 -42z" />
    <glyph glyph-name="four" unicode="4" 
d="M139 265h246v336zM598 179h-121v-179h-92v179h-342v86l341 460h93v-460h121v-86z" />
    <glyph glyph-name="five" unicode="5" 
d="M322 66q31 0 59 11.5t49 33.5t33 54t12 73q0 44 -13.5 75.5t-35.5 51.5t-50 29.5t-56 9.5q-26 0 -47.5 -7t-38.5 -18t-28.5 -24.5t-17.5 -26.5l-96 4l47 393h402v-78h-324l-26 -217q29 28 67.5 41t82.5 13q45 0 87 -16t74 -47.5t51.5 -77t19.5 -104.5q0 -62 -21 -109
t-56.5 -78.5t-81 -48t-93.5 -16.5q-60 0 -105.5 19t-76 51t-47.5 73.5t-20 85.5h93q8 -66 46 -108t111 -42z" />
    <glyph glyph-name="six" unicode="6" 
d="M176 232q0 -75 40.5 -120.5t109.5 -45.5q33 0 60.5 12t48 34t31.5 52.5t11 67.5q0 36 -11 67t-31 53.5t-47.5 35t-60.5 12.5q-34 0 -61.5 -12.5t-47.5 -35t-31 -53.5t-11 -67zM340 660q-42 0 -73.5 -20t-53.5 -56.5t-34 -87.5t-13 -113q23 42 68 70.5t114 28.5
q48 0 89.5 -18t72 -51t48 -78t17.5 -99q0 -50 -18 -95t-50.5 -79.5t-78.5 -54.5t-101 -20q-129 0 -192.5 91t-63.5 256q0 76 15 149t47.5 129.5t84.5 91t127 34.5q51 0 89 -15.5t65 -40.5t43 -57t21 -66h-99q-8 48 -41 74.5t-83 26.5z" />
    <glyph glyph-name="seven" unicode="7" 
d="M82 725h509v-78q-69 -53 -126 -123.5t-97.5 -153.5t-63.5 -176.5t-26 -193.5h-105q6 97 30.5 190.5t64 177.5t93 155t118.5 124h-397v78z" />
    <glyph glyph-name="eight" unicode="8" 
d="M323 738q53 0 96.5 -14t74 -39t47.5 -58.5t17 -73.5q0 -44 -22 -90.5t-73 -75.5q34 -15 56.5 -36t36 -45.5t19 -51t5.5 -50.5q0 -51 -20 -91.5t-55 -68t-82 -42.5t-100 -15t-100 15t-82 42.5t-55 68t-20 91.5q0 24 5.5 50.5t19 51t36 45.5t56.5 36q-52 29 -74 75.5
t-22 90.5q0 40 17 73.5t48 58.5t74.5 39t96.5 14zM323 346q-73 0 -116.5 -39.5t-43.5 -102.5t43.5 -100.5t116.5 -37.5t116 37.5t43 100.5t-43 102.5t-116 39.5zM466 544q0 56 -39 85.5t-104 29.5t-104 -30.5t-39 -84.5q0 -27 10 -50t29 -40.5t45.5 -27t58.5 -9.5t58.5 9.5
t45 27t29 40.5t10.5 50z" />
    <glyph glyph-name="nine" unicode="9" 
d="M469 493q0 75 -40 121t-109 46q-34 0 -61.5 -12.5t-47.5 -34.5t-31 -52.5t-11 -67.5q0 -36 11 -67t30.5 -53t47 -34.5t60.5 -12.5q34 0 62 12.5t47.5 34.5t30.5 53t11 67zM307 66q41 0 72.5 20t53.5 56.5t33.5 87.5t13.5 113q-23 -42 -68 -70.5t-114 -28.5
q-48 0 -89.5 18t-72 50.5t-48 77.5t-17.5 99q0 50 17.5 95t49.5 79.5t77.5 54.5t102.5 20q130 0 193.5 -90.5t63.5 -256.5q0 -76 -14.5 -148.5t-47 -129.5t-84.5 -91.5t-127 -34.5q-50 0 -88.5 15t-66 40t-43.5 57.5t-22 66.5h100q8 -49 41 -74.5t84 -25.5z" />
    <glyph glyph-name="colon" unicode=":" 
d="M265 423v115h115v-115h-115zM265 0v115h115v-115h-115z" />
    <glyph glyph-name="semicolon" unicode=";" 
d="M265 423v115h115v-115h-115zM265 115h115v-123l-61 -131h-58l53 139h-49v115z" />
    <glyph glyph-name="equal" unicode="=" 
d="M72 327v87h502v-87h-502zM72 124v86h502v-86h-502z" />
    <glyph glyph-name="question" unicode="?" 
d="M86 520q0 49 19 89t52 68.5t78 44.5t98 16q42 0 83 -10.5t72.5 -32t51 -54.5t19.5 -79q0 -36 -11 -65t-30 -53.5t-43.5 -44.5t-51.5 -36q-23 -14 -39 -26.5t-26 -25.5t-14.5 -28t-4.5 -36v-35h-91v38q0 31 7 55.5t22 44.5t37.5 38.5t53.5 38.5q19 12 36 25t30 28.5
t20 34.5t7 44q0 47 -36.5 73t-93.5 26q-42 0 -70.5 -13t-46.5 -33t-26 -44.5t-9 -47.5h-93zM237 0v115h115v-115h-115z" />
    <glyph glyph-name="at" unicode="@" 
d="M472 156q-31 0 -53 24t-27 69q-17 -43 -47 -66.5t-72 -23.5q-24 0 -45 11t-37 33.5t-25.5 57t-9.5 81.5q0 43 11 85t32 75.5t50.5 54t67.5 20.5q33 0 57 -21t35 -56l6 60h56l-24 -220q-1 -13 -2 -34t1.5 -40.5t10.5 -33.5t25 -14q15 0 28.5 14t24 39.5t16.5 60.5t6 76
q0 63 -16 113t-45.5 85t-70 54t-89.5 19q-55 0 -100 -26.5t-77.5 -71t-50 -103.5t-17.5 -124q0 -62 14.5 -116.5t42.5 -96t67.5 -65.5t89.5 -24q37 0 78.5 8.5t74.5 30.5l24 -59q-41 -23 -89 -34t-88 -11q-62 0 -113 28.5t-87.5 78t-56.5 117t-20 145.5q0 80 23.5 150
t65.5 121.5t98.5 81t122.5 29.5q57 0 108 -20t89 -60.5t60 -102t22 -143.5q0 -61 -12.5 -108.5t-33 -80.5t-46.5 -50t-53 -17zM318 511q-22 0 -39.5 -15t-30 -39t-19 -54.5t-6.5 -61.5q0 -53 17.5 -85.5t50.5 -32.5q23 0 41 15.5t30 40.5t18.5 56.5t6.5 64.5q0 47 -18 79
t-51 32z" />
    <glyph glyph-name="A" unicode="A" 
d="M612 0h-102l-49 155h-277l-48 -155h-102l238 725h102zM212 244h221l-110 354z" />
    <glyph glyph-name="B" unicode="B" 
d="M100 725h214q45 0 88 -7.5t76.5 -28t53.5 -55t20 -88.5q0 -52 -18.5 -94.5t-53.5 -64.5q47 -22 73 -63.5t26 -108.5q0 -58 -19.5 -98.5t-53 -66.5t-77.5 -38t-93 -12h-236v725zM195 90h149q137 0 137 124q0 64 -35 91t-109 27h-142v-242zM195 417h139q57 0 90 25.5
t33 89.5q0 56 -34 79.5t-89 23.5h-139v-218z" />
    <glyph glyph-name="C" unicode="C" 
d="M578 225q-19 -117 -86 -177.5t-166 -60.5q-66 0 -115 28t-81.5 78t-48 119t-15.5 152q0 84 17.5 153.5t51 118.5t83.5 76t115 27q47 0 87.5 -17.5t72 -49.5t53 -77t30.5 -100h-97q-5 31 -15.5 59t-29 49.5t-44.5 34t-60 12.5q-79 0 -122.5 -73t-43.5 -213
q0 -67 10.5 -120.5t31.5 -91t52.5 -57.5t73.5 -20q34 0 60.5 11t45 31t29.5 47.5t16 60.5h95z" />
    <glyph glyph-name="D" unicode="D" 
d="M493 363q0 93 -24.5 147t-64 81.5t-89 35.5t-100.5 8h-26v-545h26q51 0 100.5 8t89 36t64 82.5t24.5 146.5zM218 725q77 0 145 -17.5t118.5 -59.5t79.5 -111.5t29 -173.5t-29 -173.5t-79.5 -111.5t-118.5 -60t-145 -18h-124v725h124z" />
    <glyph glyph-name="E" unicode="E" 
d="M112 725h432v-90h-337v-216h317v-90h-317v-239h337v-90h-432v725z" />
    <glyph glyph-name="F" unicode="F" 
d="M130 725h446v-90h-351v-216h332v-90h-332v-329h-95v725z" />
    <glyph glyph-name="G" unicode="G" 
d="M325 650q-87 0 -131 -73t-44 -213q0 -67 10.5 -120.5t32 -91t54.5 -57.5t78 -20q33 0 63.5 8.5t54 29.5t37.5 57.5t14 92.5v23h-167v90h254v-376h-72l-4 91q-32 -56 -75 -80t-109 -24q-70 0 -121 28t-84 78t-48.5 119t-15.5 152q0 84 17.5 153t52.5 118t87 76t121 27
q102 0 167 -63t82 -174h-98q-5 31 -15 58.5t-28.5 47.5t-46 31.5t-66.5 11.5z" />
    <glyph glyph-name="H" unicode="H" 
d="M558 726v-726h-95v329h-280v-329h-95v726h95v-307h280v307h95z" />
    <glyph glyph-name="I" unicode="I" 
d="M92 725h461v-90h-183v-545h183v-90h-461v90h183v545h-183v90z" />
    <glyph glyph-name="J" unicode="J" 
d="M520 725v-495q0 -119 -52 -181t-159 -62q-49 0 -88.5 16t-68 47t-44 74.5t-15.5 99.5h95q0 -76 29 -113t92 -37q26 0 47.5 6t36.5 23.5t23.5 48t8.5 79.5v404h-279v90h374z" />
    <glyph glyph-name="K" unicode="K" 
d="M203 378l259 347h112l-219 -283l247 -442h-109l-200 362l-90 -116v-246h-95v725h95v-347z" />
    <glyph glyph-name="L" unicode="L" 
d="M220 90h356v-90h-451v725h95v-635z" />
    <glyph glyph-name="M" unicode="M" 
d="M275 250l-106 382v-632h-95v725h149l100 -371l100 371h149v-725h-95v632l-106 -382h-96z" />
    <glyph glyph-name="N" unicode="N" 
d="M415 0l-232 619v-619h-95v725h142l232 -617v617h95v-725h-142z" />
    <glyph glyph-name="O" unicode="O" 
d="M323 738q68 0 119 -28t84.5 -77.5t50.5 -118.5t17 -151t-17 -151t-50.5 -119t-84.5 -78t-119 -28t-119 28t-84.5 78t-50.5 119t-17 151t17 151t50.5 118.5t84.5 77.5t119 28zM323 650q-90 0 -131.5 -74.5t-41.5 -212.5t41.5 -213t131.5 -75t131.5 75.5t41.5 212.5
t-41.5 212t-131.5 75z" />
    <glyph glyph-name="P" unicode="P" 
d="M299 725q60 0 111 -9.5t89 -34.5t59.5 -68.5t21.5 -110.5q0 -68 -21.5 -111t-59.5 -68t-89 -34.5t-111 -9.5h-83v-279h-95v725h178zM216 635v-266h95q36 0 67.5 4t54.5 18t36 40.5t13 70.5t-13 70.5t-36 40.5t-54.5 18t-67.5 4h-95z" />
    <glyph glyph-name="Q" unicode="Q" 
d="M322 739q68 0 119 -28t84.5 -78t50.5 -119t17 -151q0 -83 -17 -151.5t-51 -119.5l70 -78l-55 -62l-72 80q-30 -22 -66 -33.5t-80 -11.5q-68 0 -119 28t-84.5 78t-50.5 119t-17 151t17 151t50.5 119t84.5 78t119 28zM322 650q-90 0 -131.5 -74.5t-41.5 -212.5t41.5 -213
t131.5 -75q50 0 85 24l-68 76l56 63l65 -74q35 71 35 199q0 137 -41.5 212t-131.5 75z" />
    <glyph glyph-name="R" unicode="R" 
d="M339 306q-13 -1 -26 -1h-27h-82v-305h-95v725h177q59 0 110.5 -8t89 -30.5t59 -63t21.5 -105.5q0 -85 -35.5 -130t-95.5 -64l154 -324h-108zM204 635v-240h93q36 0 67 3t54.5 15.5t36.5 36.5t13 66t-13 66t-36.5 35.5t-54.5 14.5t-67 3h-93z" />
    <glyph glyph-name="S" unicode="S" 
d="M265 342q-36 8 -69 23.5t-58.5 39.5t-40.5 57.5t-15 76.5q0 47 19 84t51.5 62.5t75.5 39t92 13.5q42 0 82.5 -11.5t74 -36.5t56 -63.5t28.5 -92.5h-94q-4 33 -19 55t-36.5 35.5t-46.5 19.5t-50 6t-49 -6.5t-43 -19.5t-31 -33.5t-12 -48.5q0 -48 30.5 -73t74.5 -35l72 -16
q44 -10 83.5 -25.5t69.5 -40t48 -61t18 -88.5q0 -51 -18.5 -91t-51.5 -67.5t-78 -42.5t-97 -15q-55 0 -102 17t-81.5 48.5t-55 75.5t-23.5 98h94q8 -73 54.5 -112t116.5 -39q27 0 53 7t47 22t33.5 38t12.5 54q0 28 -10 49t-28 36t-43 25t-55 17l-79 19v0z" />
    <glyph glyph-name="T" unicode="T" 
d="M275 635h-218v90h531v-90h-218v-635h-95v635z" />
    <glyph glyph-name="U" unicode="U" 
d="M174 725v-441q0 -53 6 -92.5t22 -65.5t45 -38.5t75 -12.5q47 0 76 14.5t45.5 42t22.5 68.5t6 95v430h95v-422q0 -80 -11.5 -139t-40 -98.5t-75.5 -59t-118 -19.5q-68 0 -114.5 16.5t-75 53t-41 95t-12.5 143.5v430h95z" />
    <glyph glyph-name="V" unicode="V" 
d="M44 725h102l176 -598l177 598h102l-228 -725h-101z" />
    <glyph glyph-name="W" unicode="W" 
d="M454 138l54 587h95l-73 -725h-123l-84 378l-84 -378h-124l-72 725h95l53 -587l80 366h103z" />
    <glyph glyph-name="X" unicode="X" 
d="M270 382l-210 343h110l155 -254l158 254h104l-210 -339l236 -386h-109l-182 297l-184 -297h-105z" />
    <glyph glyph-name="Y" unicode="Y" 
d="M509 725h111l-250 -453v-272h-95v272l-250 453h111l187 -355z" />
    <glyph glyph-name="Z" unicode="Z" 
d="M557 635l-372 -545h376v-90h-485v90l373 545h-343v90h451v-90z" />
    <glyph glyph-name="bracketleft" unicode="[" 
d="M435 725v-77h-136v-746h136v-77h-224v900h224z" />
    <glyph glyph-name="bracketright" unicode="]" 
d="M435 725v-900h-224v77h136v746h-136v77h224z" />
    <glyph glyph-name="underscore" unicode="_" 
d="M126 -86v86h393v-86h-393z" />
    <glyph glyph-name="grave" unicode="`" 
d="M219 725h116l91 -116h-77z" />
    <glyph glyph-name="a" unicode="a" 
d="M269 -13q-36 0 -68 10.5t-56 30t-37.5 48t-13.5 64.5q0 48 24.5 80.5t71 54t112 34.5t148.5 22v23q0 35 -9 58t-25 37t-38.5 20t-48.5 6q-63 0 -93 -28.5t-35 -78.5h-94q3 43 22.5 77t50 57t69.5 35t81 12q112 0 162.5 -51.5t48.5 -163.5l-1 -131q-1 -68 2 -122t5 -81
h-88l-1 79q-25 -42 -69.5 -67t-119.5 -25zM457 258q-62 -6 -110.5 -14t-83 -21t-52.5 -32.5t-18 -48.5q0 -38 26.5 -59.5t75.5 -21.5q31 0 60 8.5t51.5 29t36.5 55.5t14 89v15z" />
    <glyph glyph-name="b" unicode="b" 
d="M202 457q23 39 61 64.5t99 25.5q46 0 85.5 -19t68.5 -55t45.5 -88t16.5 -118q0 -67 -16.5 -119t-45.5 -88t-68.5 -54.5t-85.5 -18.5q-61 0 -99 25.5t-61 63.5l-1 -76h-91v725h92v-268zM198 267q0 -53 12 -91.5t31.5 -63.5t45.5 -37t55 -12q70 0 104.5 53.5t34.5 150.5
t-34.5 150t-104.5 53q-29 0 -55 -12t-45.5 -36.5t-31.5 -63t-12 -91.5z" />
    <glyph glyph-name="c" unicode="c" 
d="M333 547q47 0 85.5 -15.5t66.5 -42t44.5 -60.5t19.5 -70h-93q-9 50 -43 81t-84 31q-30 0 -56.5 -13t-46.5 -38.5t-31.5 -63.5t-11.5 -89t11.5 -89.5t31.5 -64t46.5 -38.5t56.5 -13q27 0 49.5 9t39 24.5t27 35.5t15.5 42h95q-6 -40 -25.5 -74t-50.5 -59t-70.5 -39
t-84.5 -14q-56 0 -100 20.5t-75 58t-47 88.5t-16 113q0 60 17 111t49 88.5t77.5 59t103.5 21.5z" />
    <glyph glyph-name="d" unicode="d" 
d="M444 725h92v-725h-91l-1 76q-23 -38 -60.5 -63.5t-98.5 -25.5q-47 0 -86.5 18.5t-68.5 54.5t-45.5 88t-16.5 119q0 66 16.5 118t45.5 88t68.5 55t86.5 19q61 0 98.5 -25.5t60.5 -64.5v268zM448 267q0 53 -11.5 91.5t-31.5 63t-46 36.5t-55 12q-69 0 -104 -53t-35 -150
t35 -150.5t104 -53.5q29 0 55 12t46 37t31.5 63.5t11.5 91.5z" />
    <glyph glyph-name="e" unicode="e" 
d="M326 -13q-61 0 -107 21.5t-76.5 59t-45.5 88.5t-15 111q0 65 18 117t50.5 88.5t77.5 56t98 19.5q59 0 105 -21t76.5 -60.5t46 -96.5t12.5 -129h-387q0 -41 10.5 -74t30 -56t46 -36t58.5 -13q60 0 92.5 26.5t46.5 72.5h95q-8 -38 -27.5 -70t-49.5 -55t-69 -36t-86 -13z
M326 472q-66 0 -104.5 -38.5t-41.5 -116.5h288q0 33 -8.5 61.5t-26.5 49t-45 32.5t-62 12z" />
    <glyph glyph-name="f" unicode="f" 
d="M220 577q0 42 6 70.5t22 45.5t43.5 24.5t71.5 7.5h190v-78h-188q-34 0 -43.5 -14t-9.5 -56v-39h241v-79h-241v-459h-92v459h-143v79h143v39z" />
    <glyph glyph-name="g" unicode="g" 
d="M446 538h92v-471q0 -41 -2.5 -71t-8 -52t-13.5 -37.5t-19 -28.5q-29 -34 -80 -52.5t-108 -18.5q-88 0 -146 41t-70 121h97q5 -18 13 -33.5t22 -26t34.5 -16.5t50.5 -6q35 0 64 10t46 30q7 8 12 17t8.5 22.5t5.5 33t2 46.5v52q-23 -39 -60.5 -64t-98.5 -25q-47 0 -86.5 17
t-68.5 50.5t-45.5 84t-16.5 117.5q0 66 16.5 116.5t45.5 84.5t68.5 51t86.5 17q61 0 98.5 -25.5t60.5 -64.5v81zM450 278q0 53 -11.5 90t-31.5 59.5t-46 32.5t-55 10q-139 0 -139 -192q0 -193 139 -193q29 0 55 10.5t46 33.5t31.5 59.5t11.5 89.5z" />
    <glyph glyph-name="h" unicode="h" 
d="M365 547q49 0 81 -15.5t51.5 -42.5t27.5 -64.5t8 -82.5v-342h-92v310q0 33 -2.5 62t-13 50.5t-32 34.5t-58.5 13q-63 0 -96 -45.5t-33 -132.5v-292h-92v725h92v-263q21 35 58.5 60t100.5 25z" />
    <glyph glyph-name="i" unicode="i" 
d="M378 725v-109h-92v109h92zM378 538v-459h153v-79h-397v79h152v380h-152v79h244z" />
    <glyph glyph-name="j" unicode="j" 
d="M410 538v-565q0 -42 -6 -70.5t-21 -45.5t-39.5 -24.5t-61.5 -7.5h-144v79h125q17 0 27.5 2.5t16.5 10t8.5 20.5t2.5 34v488h-135v79h227zM410 725v-109h-92v109h92z" />
    <glyph glyph-name="k" unicode="k" 
d="M213 725v-432l238 245h118l-211 -209l232 -329h-105l-189 268l-83 -82v-186h-92v725h92z" />
    <glyph glyph-name="l" unicode="l" 
d="M372 725v-646h153v-79h-397v79h152v568h-152v78h244z" />
    <glyph glyph-name="m" unicode="m" 
d="M350 479q17 32 43.5 50t63.5 18q21 0 41 -6.5t35.5 -24.5t25 -51t9.5 -86v-379h-92v332q0 29 -0.5 54.5t-5 44t-14 29t-26.5 10.5q-35 0 -47.5 -40.5t-12.5 -124.5v-305h-92v332q0 29 -0.5 54.5t-5 44t-13.5 29t-26 10.5q-35 0 -48 -41t-13 -126v-303h-92v538h88v-57
q14 26 37 46t61 20q37 0 56 -20.5t28 -47.5z" />
    <glyph glyph-name="n" unicode="n" 
d="M206 462q10 17 24 32.5t33 27t44 18.5t57 7q49 0 81.5 -15.5t52 -42.5t27.5 -64.5t8 -82.5v-342h-92v310q0 33 -2.5 61.5t-13.5 50.5t-32.5 34.5t-58.5 12.5q-63 0 -95.5 -45t-32.5 -132v-292h-92v538h92v-76z" />
    <glyph glyph-name="o" unicode="o" 
d="M171 267q0 -54 12 -92t33 -63t48.5 -36.5t58.5 -11.5t58.5 11.5t48.5 36.5t33 63t12 92t-12 92t-33 63t-48.5 36.5t-58.5 11.5t-58.5 -11.5t-48.5 -36.5t-33 -63t-12 -92zM74 267q0 73 21.5 126t57 87t80 50.5t90.5 16.5t90.5 -16.5t80 -50.5t57 -87t21.5 -126
t-21.5 -126t-57 -87t-80 -50.5t-90.5 -16.5t-90.5 16.5t-80 50.5t-57 87t-21.5 126z" />
    <glyph glyph-name="p" unicode="p" 
d="M202 457q23 39 61 64.5t98 25.5q46 0 86 -19t69 -55t45.5 -88t16.5 -118q0 -67 -16.5 -119t-45.5 -88t-69 -54.5t-86 -18.5q-60 0 -98 25.5t-61 63.5v-251h-92v713h92v-81zM198 267q0 -53 11.5 -91.5t31.5 -63.5t46 -37t55 -12q69 0 104 53.5t35 150.5t-35 150t-104 53
q-29 0 -55 -12t-46 -36.5t-31.5 -63t-11.5 -91.5z" />
    <glyph glyph-name="q" unicode="q" 
d="M445 538h92v-713h-92v251q-23 -38 -61 -63.5t-99 -25.5q-46 0 -85.5 19t-68.5 55t-45.5 88t-16.5 118t16.5 118t45.5 88t68.5 55t85.5 19q61 0 99 -25.5t61 -64.5v81zM449 267q0 53 -12 91.5t-31.5 63t-46 36.5t-54.5 12q-70 0 -104.5 -53t-34.5 -150t34.5 -150
t104.5 -53q28 0 54.5 11.5t46 36.5t31.5 63.5t12 91.5z" />
    <glyph glyph-name="r" unicode="r" 
d="M329 538v-96q20 45 57 70.5t87 25.5h92v-84h-91q-77 0 -110 -49t-33 -137v-189h184v-79h-428v79h152v380h-153v79h243z" />
    <glyph glyph-name="s" unicode="s" 
d="M434 391q-9 45 -41.5 62.5t-78.5 17.5q-20 0 -39.5 -4t-34.5 -12.5t-24.5 -21.5t-9.5 -31q0 -32 20.5 -48t60.5 -24l60 -12q35 -7 69.5 -17.5t62 -29t44.5 -46.5t17 -68q0 -43 -17 -75t-46.5 -53t-68.5 -31.5t-83 -10.5q-53 0 -92.5 15t-66.5 39.5t-42 56t-19 63.5h97
q9 -47 38.5 -72.5t86.5 -25.5q21 0 42.5 4t39 14t28 25.5t10.5 39.5q0 38 -31 58t-82 29l-67 13q-32 6 -59.5 17.5t-48 30t-32.5 44t-12 60.5q0 39 19 67t48.5 46.5t65.5 27t70 8.5q86 0 141.5 -42t70.5 -114h-96z" />
    <glyph glyph-name="t" unicode="t" 
d="M197 673h92v-135h220v-79h-220v-311q0 -21 1.5 -34t6.5 -21t16 -11t30 -3h166v-79h-186q-37 0 -61 5.5t-38.5 20t-20.5 41t-6 68.5v324h-153v79h153v135z" />
    <glyph glyph-name="u" unicode="u" 
d="M439 69q-22 -35 -58 -58.5t-100 -23.5q-49 0 -81 15.5t-51 42.5t-27 64.5t-8 82.5v346h92v-314q0 -33 2.5 -61.5t12.5 -50t31 -34t59 -12.5q63 0 95.5 44.5t32.5 131.5v296h92v-538h-92v69z" />
    <glyph glyph-name="v" unicode="v" 
d="M327 126l138 412h96l-194 -538h-88l-194 538h103z" />
    <glyph glyph-name="w" unicode="w" 
d="M365 430l80 -290l55 398h93l-90 -538h-93l-88 325l-88 -325h-93l-90 538h94l54 -398l80 290h86z" />
    <glyph glyph-name="x" unicode="x" 
d="M374 277l188 -277h-104l-135 200l-135 -200h-104l187 276l-176 262h103l125 -185l126 185h102z" />
    <glyph glyph-name="y" unicode="y" 
d="M77 -175v79h97q21 0 35.5 2.5t26 11t20.5 25t20 45.5l4 12l-201 538h101l146 -415l143 415h95l-199 -561q-14 -40 -28.5 -68.5t-34 -47t-48 -27.5t-71.5 -9h-106z" />
    <glyph glyph-name="z" unicode="z" 
d="M104 79l327 380h-308v79h420v-79l-327 -380h332v-79h-444v79z" />
    <glyph glyph-name="braceleft" unicode="{" 
d="M410 -175q-45 0 -73.5 7.5t-44.5 24.5t-21.5 45.5t-5.5 70.5v162q0 24 -2.5 43t-10.5 32.5t-23 20.5t-40 7v74q25 0 40 7.5t23 21t10.5 32.5t2.5 42v162q0 42 5.5 70.5t21.5 45.5t44.5 24.5t73.5 7.5h48v-77h-46q-35 0 -45.5 -14t-10.5 -56v-165q0 -35 -5.5 -58.5
t-16.5 -39.5t-26.5 -25t-35.5 -14v-2q20 -5 35.5 -14t26.5 -25t16.5 -39.5t5.5 -58.5v-165q0 -42 10.5 -56t45.5 -14h46v-77h-48v0z" />
    <glyph glyph-name="bar" unicode="|" 
d="M364 725v-815h-82v815h82z" />
    <glyph glyph-name="braceright" unicode="}" 
d="M188 -98h45q35 0 45.5 14t10.5 56v165q0 35 5.5 58.5t16.5 39.5t26.5 25t35.5 14v2q-20 5 -35.5 14t-26.5 25t-16.5 39.5t-5.5 58.5v165q0 42 -10.5 56t-45.5 14h-45v77h47q45 0 73.5 -7.5t44.5 -24.5t21.5 -45.5t5.5 -70.5v-162q0 -23 2.5 -42t11 -32.5t23.5 -21
t40 -7.5v-74q-25 0 -40 -7t-23.5 -20.5t-11 -32.5t-2.5 -43v-162q0 -42 -5.5 -70.5t-21.5 -45.5t-44.5 -24.5t-73.5 -7.5h-47v77z" />
    <glyph glyph-name="uni00A0" unicode="&#xa0;" 
 />
    <glyph glyph-name="exclamdown" unicode="&#xa1;" 
d="M351 327l20 -294v-208h-96v208l19 294h57zM265 423v115h115v-115h-115z" />
    <glyph glyph-name="sterling" unicode="&#xa3;" 
d="M338 659q-23 0 -48 -5.5t-45 -18.5t-33 -34.5t-13 -52.5q0 -39 16.5 -75t36.5 -73h194v-65h-165q7 -18 11 -36t4 -38q0 -29 -9 -54t-24 -46t-34 -37t-39 -28l1 -2q17 6 32.5 9.5t35.5 3.5q21 0 41.5 -6t42 -13.5t44.5 -13.5t50 -6q32 0 62.5 8t57.5 19l27 -79
q-21 -12 -60 -22.5t-79 -10.5q-29 0 -54 6t-49.5 13.5t-50 14t-55.5 6.5q-32 0 -71.5 -10t-74.5 -30l-30 73q16 7 40 22.5t46.5 39.5t38 56.5t15.5 71.5q0 24 -5.5 46t-13.5 43h-120v65h89q-18 35 -33 71.5t-15 80.5q0 50 21.5 85t55.5 57.5t77 33t86 10.5q58 0 103 -17.5
t76.5 -48.5t47.5 -75t15 -96h-94q-1 45 -13 75t-33 48.5t-48 26.5t-58 8z" />
    <glyph glyph-name="yen" unicode="&#xa5;" 
d="M509 725h111l-227 -410h141v-64h-164v-76h164v-64h-164v-111h-95v111h-167v64h167v76h-167v64h143l-226 410h111l187 -355z" />
    <glyph glyph-name="dieresis" unicode="&#xa8;" 
d="M163 708h91v-99h-91v99zM483 708v-99h-91v99h91z" />
    <glyph glyph-name="copyright" unicode="&#xa9;" 
d="M44 457q0 62 22 114t59.5 89t88.5 57.5t109 20.5q57 0 108 -20.5t89 -57.5t60 -89t22 -114t-22 -113t-60 -88t-89 -57t-108 -20q-58 0 -109 20t-88.5 57t-59.5 88t-22 113zM93 457q0 -52 17.5 -95t48.5 -73.5t73 -47.5t91 -17t91 17t72.5 47.5t47.5 73.5t17 95t-17 95.5
t-47.5 75t-72.5 48.5t-91 17t-91 -17t-73 -48.5t-48.5 -75t-17.5 -95.5zM322 355q26 0 47.5 12.5t30.5 44.5l57 -15q-7 -18 -18.5 -34t-28 -28.5t-38.5 -20t-50 -7.5q-69 0 -106 42t-37 116q0 73 39 114t106 41q54 0 86 -27.5t43 -68.5l-55 -15q-8 32 -28.5 47.5t-47.5 15.5
q-35 0 -58 -26t-23 -81t23 -82.5t58 -27.5z" />
    <glyph glyph-name="guillemotleft" unicode="&#xab;" 
d="M73 273l159 228h98l-150 -228l150 -229h-98zM294 273l159 228h98l-150 -228l150 -229h-98z" />
    <glyph glyph-name="uni00AD" unicode="&#xad;" 
d="M164 231v86h318v-86h-318z" />
    <glyph glyph-name="macron" unicode="&#xaf;" 
d="M173 623v76h300v-76h-300z" />
    <glyph glyph-name="degree" unicode="&#xb0;" 
d="M176 591q0 31 11.5 57.5t31 46.5t46.5 31.5t57 11.5q31 0 57.5 -11.5t46.5 -31.5t31.5 -46.5t11.5 -57.5q0 -30 -11.5 -57t-31.5 -46.5t-46.5 -31t-57.5 -11.5q-30 0 -57 11.5t-46.5 31t-31 46.5t-11.5 57zM249 591q0 -32 20.5 -55.5t52.5 -23.5q33 0 54 23.5t21 55.5
q0 33 -21 56.5t-54 23.5q-32 0 -52.5 -23.5t-20.5 -56.5z" />
    <glyph glyph-name="acute" unicode="&#xb4;" 
d="M295 609h-76l90 116h117z" />
    <glyph glyph-name="periodcentered" unicode="&#xb7;" 
d="M265 212v115h115v-115h-115z" />
    <glyph glyph-name="cedilla" unicode="&#xb8;" 
d="M238 -136q13 -6 28.5 -10t29.5 -4q22 0 41.5 7t19.5 25q0 15 -13 22.5t-31 7.5q-8 0 -19 -2t-19 -7l-30 17l51 83h53l-32 -51q15 3 30 3q36 0 56 -18.5t20 -49.5q0 -20 -9.5 -35t-25 -25.5t-35 -16t-38.5 -5.5q-20 0 -44 3.5t-49 15.5z" />
    <glyph glyph-name="guillemotright" unicode="&#xbb;" 
d="M194 44h-98l151 229l-151 228h98l159 -228zM415 44h-98l151 229l-151 228h98l159 -228z" />
    <glyph glyph-name="questiondown" unicode="&#xbf;" 
d="M559 31q0 -49 -19 -89t-52 -68.5t-78 -44t-98 -15.5q-42 0 -83 10t-72.5 31.5t-51 54.5t-19.5 79q0 36 11 65t30 53t43.5 43t51.5 36q23 14 39 25t26 22t14.5 25t4.5 35v33h91v-36q0 -32 -7 -54.5t-22 -41t-37.5 -35.5t-53.5 -37q-20 -12 -36.5 -25t-29.5 -28t-20 -33.5
t-7 -43.5q0 -47 36.5 -72.5t93.5 -25.5q42 0 70.5 13t46.5 33t26 44t9 47h93zM293 423v115h115v-115h-115z" />
    <glyph glyph-name="Agrave" unicode="&#xc0;" 
d="M612 0h-102l-49 155h-277l-48 -155h-102l238 725h102zM212 244h221l-110 354zM138 874h129l109 -113h-90z" />
    <glyph glyph-name="Aacute" unicode="&#xc1;" 
d="M612 0h-102l-49 155h-277l-48 -155h-102l238 725h102zM212 244h221l-110 354zM362 761h-90l109 113h129z" />
    <glyph glyph-name="Acircumflex" unicode="&#xc2;" 
d="M612 0h-102l-49 155h-277l-48 -155h-102l238 725h102zM212 244h221l-110 354zM498 761h-106l-69 56l-69 -56h-106l134 113h84z" />
    <glyph glyph-name="Atilde" unicode="&#xc3;" 
d="M612 0h-102l-49 155h-277l-48 -155h-102l238 725h102zM212 244h221l-110 354zM389 828q41 0 47 45h71q-10 -62 -43 -87.5t-73 -25.5q-23 0 -41 7.5t-34 16t-30.5 16t-30.5 7.5q-40 0 -45 -44h-71q9 59 40.5 85.5t74.5 26.5q23 0 40.5 -7.5t33 -16t30 -16t31.5 -7.5z" />
    <glyph glyph-name="Adieresis" unicode="&#xc4;" 
d="M612 0h-102l-49 155h-277l-48 -155h-102l238 725h102zM212 244h221l-110 354zM254 868v-99h-91v99h91zM483 868v-99h-91v99h91z" />
    <glyph glyph-name="Aring" unicode="&#xc5;" 
d="M612 0h-102l-49 155h-277l-48 -155h-102l238 725h102zM212 244h221l-110 354zM323 921q38 0 64.5 -23.5t26.5 -61.5q0 -37 -26.5 -61t-64.5 -24t-64.5 24t-26.5 61q0 38 27 61.5t64 23.5zM323 879q-17 0 -30.5 -12t-13.5 -31q0 -18 13.5 -30t30.5 -12t30 12t13 30
q0 19 -13 31t-30 12z" />
    <glyph glyph-name="AE" unicode="&#xc6;" 
d="M602 725v-90h-207v-216h187v-90h-187v-239h207v-90h-302v155h-131l-57 -155h-102l290 725h302zM202 244h98v261z" />
    <glyph glyph-name="Ccedilla" unicode="&#xc7;" 
d="M578 225q-19 -117 -86 -177.5t-166 -60.5q-66 0 -115 28t-81.5 78t-48 119t-15.5 152q0 84 17.5 153.5t51 118.5t83.5 76t115 27q47 0 87.5 -17.5t72 -49.5t53 -77t30.5 -100h-97q-5 31 -15.5 59t-29 49.5t-44.5 34t-60 12.5q-79 0 -122.5 -73t-43.5 -213
q0 -67 10.5 -120.5t31.5 -91t52.5 -57.5t73.5 -20q34 0 60.5 11t45 31t29.5 47.5t16 60.5h95zM243 -136q13 -6 28.5 -10t29.5 -4q22 0 41.5 7t19.5 25q0 15 -13 22.5t-31 7.5q-8 0 -19 -2t-19 -7l-30 17l51 83h53l-32 -51q15 3 30 3q36 0 56 -18.5t20 -49.5q0 -20 -9.5 -35
t-25 -25.5t-35 -16t-38.5 -5.5q-20 0 -44 3.5t-49 15.5z" />
    <glyph glyph-name="Egrave" unicode="&#xc8;" 
d="M112 725h432v-90h-337v-216h317v-90h-317v-239h337v-90h-432v725zM175 874h129l109 -113h-90z" />
    <glyph glyph-name="Eacute" unicode="&#xc9;" 
d="M112 725h432v-90h-337v-216h317v-90h-317v-239h337v-90h-432v725zM358 761h-90l109 113h129z" />
    <glyph glyph-name="Ecircumflex" unicode="&#xca;" 
d="M112 725h432v-90h-337v-216h317v-90h-317v-239h337v-90h-432v725zM506 761h-106l-69 56l-69 -56h-106l134 113h84z" />
    <glyph glyph-name="Edieresis" unicode="&#xcb;" 
d="M112 725h432v-90h-337v-216h317v-90h-317v-239h337v-90h-432v725zM265 868v-99h-91v99h91zM494 868v-99h-91v99h91z" />
    <glyph glyph-name="Igrave" unicode="&#xcc;" 
d="M92 725h461v-90h-183v-545h183v-90h-461v90h183v545h-183v90zM133 874h129l109 -113h-90z" />
    <glyph glyph-name="Iacute" unicode="&#xcd;" 
d="M92 725h461v-90h-183v-545h183v-90h-461v90h183v545h-183v90zM366 761h-90l109 113h129z" />
    <glyph glyph-name="Icircumflex" unicode="&#xce;" 
d="M92 725h461v-90h-183v-545h183v-90h-461v90h183v545h-183v90zM498 761h-106l-69 56l-69 -56h-106l134 113h84z" />
    <glyph glyph-name="Idieresis" unicode="&#xcf;" 
d="M92 725h461v-90h-183v-545h183v-90h-461v90h183v545h-183v90zM254 868v-99h-91v99h91zM483 868v-99h-91v99h91z" />
    <glyph glyph-name="Eth" unicode="&#xd0;" 
d="M229 725q77 0 145 -17.5t118.5 -59.5t79.5 -111.5t29 -173.5t-29 -173.5t-79.5 -111.5t-118.5 -60t-145 -18h-124v323h-62v90h62v312h124zM504 363q0 93 -24.5 147t-64 81.5t-89 35.5t-100.5 8h-26v-222h168v-90h-168v-233h26q51 0 100.5 8t89 36t64 82.5t24.5 146.5z
" />
    <glyph glyph-name="Ntilde" unicode="&#xd1;" 
d="M415 0l-232 619v-619h-95v725h142l232 -617v617h95v-725h-142zM387 828q41 0 47 45h71q-10 -62 -43 -87.5t-73 -25.5q-23 0 -41 7.5t-34 16t-30.5 16t-30.5 7.5q-40 0 -45 -44h-71q9 59 40.5 85.5t74.5 26.5q23 0 40.5 -7.5t33 -16t30 -16t31.5 -7.5z" />
    <glyph glyph-name="Ograve" unicode="&#xd2;" 
d="M323 738q68 0 119 -28t84.5 -77.5t50.5 -118.5t17 -151t-17 -151t-50.5 -119t-84.5 -78t-119 -28t-119 28t-84.5 78t-50.5 119t-17 151t17 151t50.5 118.5t84.5 77.5t119 28zM323 650q-90 0 -131.5 -74.5t-41.5 -212.5t41.5 -213t131.5 -75t131.5 75.5t41.5 212.5
t-41.5 212t-131.5 75zM156 874h129l109 -113h-90z" />
    <glyph glyph-name="Oacute" unicode="&#xd3;" 
d="M323 738q68 0 119 -28t84.5 -77.5t50.5 -118.5t17 -151t-17 -151t-50.5 -119t-84.5 -78t-119 -28t-119 28t-84.5 78t-50.5 119t-17 151t17 151t50.5 118.5t84.5 77.5t119 28zM323 650q-90 0 -131.5 -74.5t-41.5 -212.5t41.5 -213t131.5 -75t131.5 75.5t41.5 212.5
t-41.5 212t-131.5 75zM357 761h-90l109 113h129z" />
    <glyph glyph-name="Ocircumflex" unicode="&#xd4;" 
d="M323 738q68 0 119 -28t84.5 -77.5t50.5 -118.5t17 -151t-17 -151t-50.5 -119t-84.5 -78t-119 -28t-119 28t-84.5 78t-50.5 119t-17 151t17 151t50.5 118.5t84.5 77.5t119 28zM323 650q-90 0 -131.5 -74.5t-41.5 -212.5t41.5 -213t131.5 -75t131.5 75.5t41.5 212.5
t-41.5 212t-131.5 75zM498 761h-106l-69 56l-69 -56h-106l134 113h84z" />
    <glyph glyph-name="Otilde" unicode="&#xd5;" 
d="M323 738q68 0 119 -28t84.5 -77.5t50.5 -118.5t17 -151t-17 -151t-50.5 -119t-84.5 -78t-119 -28t-119 28t-84.5 78t-50.5 119t-17 151t17 151t50.5 118.5t84.5 77.5t119 28zM323 650q-90 0 -131.5 -74.5t-41.5 -212.5t41.5 -213t131.5 -75t131.5 75.5t41.5 212.5
t-41.5 212t-131.5 75zM389 828q41 0 47 45h71q-10 -62 -43 -87.5t-73 -25.5q-23 0 -41 7.5t-34 16t-30.5 16t-30.5 7.5q-40 0 -45 -44h-71q9 59 40.5 85.5t74.5 26.5q23 0 40.5 -7.5t33 -16t30 -16t31.5 -7.5z" />
    <glyph glyph-name="Odieresis" unicode="&#xd6;" 
d="M323 738q68 0 119 -28t84.5 -77.5t50.5 -118.5t17 -151t-17 -151t-50.5 -119t-84.5 -78t-119 -28t-119 28t-84.5 78t-50.5 119t-17 151t17 151t50.5 118.5t84.5 77.5t119 28zM323 650q-90 0 -131.5 -74.5t-41.5 -212.5t41.5 -213t131.5 -75t131.5 75.5t41.5 212.5
t-41.5 212t-131.5 75zM254 868v-99h-91v99h91zM483 868v-99h-91v99h91z" />
    <glyph glyph-name="multiply" unicode="&#xd7;" 
d="M493 30l-173 173l-168 -167l-64 64l167 168l-167 168l64 64l168 -166l168 166l64 -64l-168 -168l174 -173z" />
    <glyph glyph-name="Oslash" unicode="&#xd8;" 
d="M323 738q56 0 100 -19t77 -54l50 73l44 -31l-60 -87q30 -50 45 -115t15 -142q0 -82 -17 -151t-50.5 -119t-84.5 -78t-119 -28q-54 0 -97.5 18t-75.5 51l-47 -69l-44 30l56 83q-32 50 -47.5 116.5t-15.5 146.5q0 82 17 151t50.5 118.5t84.5 77.5t119 28zM323 650
q-90 0 -131.5 -74.5t-41.5 -212.5q0 -108 25 -176l272 399q-43 64 -124 64zM496 363q0 102 -22 168l-271 -398q43 -58 120 -58q90 0 131.5 75.5t41.5 212.5z" />
    <glyph glyph-name="Ugrave" unicode="&#xd9;" 
d="M174 725v-441q0 -53 6 -92.5t22 -65.5t45 -38.5t75 -12.5q47 0 76 14.5t45.5 42t22.5 68.5t6 95v430h95v-422q0 -80 -11.5 -139t-40 -98.5t-75.5 -59t-118 -19.5q-68 0 -114.5 16.5t-75 53t-41 95t-12.5 143.5v430h95zM143 874h129l109 -113h-90z" />
    <glyph glyph-name="Uacute" unicode="&#xda;" 
d="M174 725v-441q0 -53 6 -92.5t22 -65.5t45 -38.5t75 -12.5q47 0 76 14.5t45.5 42t22.5 68.5t6 95v430h95v-422q0 -80 -11.5 -139t-40 -98.5t-75.5 -59t-118 -19.5q-68 0 -114.5 16.5t-75 53t-41 95t-12.5 143.5v430h95zM349 761h-90l109 113h129z" />
    <glyph glyph-name="Ucircumflex" unicode="&#xdb;" 
d="M174 725v-441q0 -53 6 -92.5t22 -65.5t45 -38.5t75 -12.5q47 0 76 14.5t45.5 42t22.5 68.5t6 95v430h95v-422q0 -80 -11.5 -139t-40 -98.5t-75.5 -59t-118 -19.5q-68 0 -114.5 16.5t-75 53t-41 95t-12.5 143.5v430h95zM498 761h-106l-69 56l-69 -56h-106l134 113h84z" />
    <glyph glyph-name="Udieresis" unicode="&#xdc;" 
d="M174 725v-441q0 -53 6 -92.5t22 -65.5t45 -38.5t75 -12.5q47 0 76 14.5t45.5 42t22.5 68.5t6 95v430h95v-422q0 -80 -11.5 -139t-40 -98.5t-75.5 -59t-118 -19.5q-68 0 -114.5 16.5t-75 53t-41 95t-12.5 143.5v430h95zM254 868v-99h-91v99h91zM483 868v-99h-91v99h91z
" />
    <glyph glyph-name="Yacute" unicode="&#xdd;" 
d="M509 725h111l-250 -453v-272h-95v272l-250 453h111l187 -355zM361 761h-90l109 113h129z" />
    <glyph glyph-name="Thorn" unicode="&#xde;" 
d="M216 725v-124h83q60 0 111 -10t89 -36t59.5 -70t21.5 -111q0 -68 -21.5 -111.5t-59.5 -69.5t-89 -36t-111 -10h-83v-147h-94v725h94zM216 511v-273h95q36 0 67.5 4.5t54.5 19t36 41.5t13 71t-13 71t-36 41.5t-54.5 19.5t-67.5 5h-95z" />
    <glyph glyph-name="germandbls" unicode="&#xdf;" 
d="M80 0v493q0 245 235 245q94 0 150.5 -46t56.5 -126q0 -54 -26 -93.5t-82 -63.5q32 -8 59.5 -24t47.5 -40t31.5 -57t11.5 -75q0 -63 -20 -106t-54 -69.5t-79 -38.5t-95 -12q-26 0 -55 3t-54 8l19 87q20 -7 45.5 -10t48.5 -3q31 0 58 6.5t47 23t31 43t11 67.5q0 40 -15 68
t-42 46t-64.5 26.5t-82.5 8.5h-3v82h2q81 0 124.5 28t43.5 82q0 48 -29.5 77t-87.5 29q-78 0 -110 -41.5t-32 -129.5v-488h-91z" />
    <glyph glyph-name="agrave" unicode="&#xe0;" 
d="M269 -13q-36 0 -68 10.5t-56 30t-37.5 48t-13.5 64.5q0 48 24.5 80.5t71 54t112 34.5t148.5 22v23q0 35 -9 58t-25 37t-38.5 20t-48.5 6q-63 0 -93 -28.5t-35 -78.5h-94q3 43 22.5 77t50 57t69.5 35t81 12q112 0 162.5 -51.5t48.5 -163.5l-1 -131q-1 -68 2 -122t5 -81
h-88l-1 79q-25 -42 -69.5 -67t-119.5 -25zM457 258q-62 -6 -110.5 -14t-83 -21t-52.5 -32.5t-18 -48.5q0 -38 26.5 -59.5t75.5 -21.5q31 0 60 8.5t51.5 29t36.5 55.5t14 89v15zM174 725h116l91 -116h-77z" />
    <glyph glyph-name="aacute" unicode="&#xe1;" 
d="M269 -13q-36 0 -68 10.5t-56 30t-37.5 48t-13.5 64.5q0 48 24.5 80.5t71 54t112 34.5t148.5 22v23q0 35 -9 58t-25 37t-38.5 20t-48.5 6q-63 0 -93 -28.5t-35 -78.5h-94q3 43 22.5 77t50 57t69.5 35t81 12q112 0 162.5 -51.5t48.5 -163.5l-1 -131q-1 -68 2 -122t5 -81
h-88l-1 79q-25 -42 -69.5 -67t-119.5 -25zM457 258q-62 -6 -110.5 -14t-83 -21t-52.5 -32.5t-18 -48.5q0 -38 26.5 -59.5t75.5 -21.5q31 0 60 8.5t51.5 29t36.5 55.5t14 89v15zM357 609h-76l90 116h117z" />
    <glyph glyph-name="acircumflex" unicode="&#xe2;" 
d="M269 -13q-36 0 -68 10.5t-56 30t-37.5 48t-13.5 64.5q0 48 24.5 80.5t71 54t112 34.5t148.5 22v23q0 35 -9 58t-25 37t-38.5 20t-48.5 6q-63 0 -93 -28.5t-35 -78.5h-94q3 43 22.5 77t50 57t69.5 35t81 12q112 0 162.5 -51.5t48.5 -163.5l-1 -131q-1 -68 2 -122t5 -81
h-88l-1 79q-25 -42 -69.5 -67t-119.5 -25zM457 258q-62 -6 -110.5 -14t-83 -21t-52.5 -32.5t-18 -48.5q0 -38 26.5 -59.5t75.5 -21.5q31 0 60 8.5t51.5 29t36.5 55.5t14 89v15zM500 609h-96l-78 54l-80 -54h-95l132 116h88z" />
    <glyph glyph-name="atilde" unicode="&#xe3;" 
d="M269 -13q-36 0 -68 10.5t-56 30t-37.5 48t-13.5 64.5q0 48 24.5 80.5t71 54t112 34.5t148.5 22v23q0 35 -9 58t-25 37t-38.5 20t-48.5 6q-63 0 -93 -28.5t-35 -78.5h-94q3 43 22.5 77t50 57t69.5 35t81 12q112 0 162.5 -51.5t48.5 -163.5l-1 -131q-1 -68 2 -122t5 -81
h-88l-1 79q-25 -42 -69.5 -67t-119.5 -25zM457 258q-62 -6 -110.5 -14t-83 -21t-52.5 -32.5t-18 -48.5q0 -38 26.5 -59.5t75.5 -21.5q31 0 60 8.5t51.5 29t36.5 55.5t14 89v15zM392 673q20 0 32.5 11t15.5 34h71q-10 -62 -43.5 -87.5t-73.5 -25.5q-23 0 -41 7.5t-33.5 16
t-30 16t-30.5 7.5q-40 0 -45 -44h-71q9 58 40.5 85t74.5 27q23 0 40.5 -7.5t32.5 -16t29.5 -16t31.5 -7.5z" />
    <glyph glyph-name="adieresis" unicode="&#xe4;" 
d="M269 -13q-36 0 -68 10.5t-56 30t-37.5 48t-13.5 64.5q0 48 24.5 80.5t71 54t112 34.5t148.5 22v23q0 35 -9 58t-25 37t-38.5 20t-48.5 6q-63 0 -93 -28.5t-35 -78.5h-94q3 43 22.5 77t50 57t69.5 35t81 12q112 0 162.5 -51.5t48.5 -163.5l-1 -131q-1 -68 2 -122t5 -81
h-88l-1 79q-25 -42 -69.5 -67t-119.5 -25zM457 258q-62 -6 -110.5 -14t-83 -21t-52.5 -32.5t-18 -48.5q0 -38 26.5 -59.5t75.5 -21.5q31 0 60 8.5t51.5 29t36.5 55.5t14 89v15zM166 708h91v-99h-91v99zM486 708v-99h-91v99h91z" />
    <glyph glyph-name="aring" unicode="&#xe5;" 
d="M269 -13q-36 0 -68 10.5t-56 30t-37.5 48t-13.5 64.5q0 48 24.5 80.5t71 54t112 34.5t148.5 22v23q0 35 -9 58t-25 37t-38.5 20t-48.5 6q-63 0 -93 -28.5t-35 -78.5h-94q3 43 22.5 77t50 57t69.5 35t81 12q112 0 162.5 -51.5t48.5 -163.5l-1 -131q-1 -68 2 -122t5 -81
h-88l-1 79q-25 -42 -69.5 -67t-119.5 -25zM457 258q-62 -6 -110.5 -14t-83 -21t-52.5 -32.5t-18 -48.5q0 -38 26.5 -59.5t75.5 -21.5q31 0 60 8.5t51.5 29t36.5 55.5t14 89v15zM326 760q38 0 64.5 -24t26.5 -61q0 -38 -26.5 -61.5t-64.5 -23.5t-64 23.5t-26 61.5
q0 37 26.5 61t63.5 24zM326 718q-17 0 -30 -12.5t-13 -30.5q0 -19 13 -30.5t30 -11.5t30 11.5t13 30.5q0 18 -13 30.5t-30 12.5z" />
    <glyph glyph-name="ae" unicode="&#xe6;" 
d="M445 -13q-54 0 -90.5 25.5t-58.5 70.5q-23 -51 -59 -73.5t-87 -22.5q-33 0 -58 13.5t-41.5 35.5t-24.5 50t-8 57q0 52 20.5 85t49.5 52.5t61 28t55 12.5l53 8v35q0 64 -16.5 86.5t-52.5 22.5q-40 0 -55.5 -25.5t-18.5 -69.5h-85q2 40 16 71.5t36.5 53.5t51.5 33t61 11
q94 0 126 -70q23 33 55 51t70 18q46 0 80.5 -22t57 -63t33 -98.5t7.5 -127.5h-273q0 -39 6 -71t18 -55.5t29.5 -36.5t39.5 -13q39 0 59 21.5t28 75.5h86q-11 -78 -55.5 -123.5t-115.5 -45.5zM535 310q0 33 -4.5 62t-15.5 50.5t-28.5 34.5t-41.5 13q-45 0 -69 -42.5
t-26 -117.5h185zM262 249v9l-59 -8q-52 -8 -75 -34t-23 -66q0 -36 15 -63t49 -27q19 0 35.5 9t29.5 29.5t20.5 52.5t7.5 77v21z" />
    <glyph glyph-name="ccedilla" unicode="&#xe7;" 
d="M333 547q47 0 85.5 -15.5t66.5 -42t44.5 -60.5t19.5 -70h-93q-9 50 -43 81t-84 31q-30 0 -56.5 -13t-46.5 -38.5t-31.5 -63.5t-11.5 -89t11.5 -89.5t31.5 -64t46.5 -38.5t56.5 -13q27 0 49.5 9t39 24.5t27 35.5t15.5 42h95q-6 -40 -25.5 -74t-50.5 -59t-70.5 -39
t-84.5 -14q-56 0 -100 20.5t-75 58t-47 88.5t-16 113q0 60 17 111t49 88.5t77.5 59t103.5 21.5zM253 -136q13 -6 28.5 -10t29.5 -4q22 0 41.5 7t19.5 25q0 15 -13 22.5t-31 7.5q-8 0 -19 -2t-19 -7l-30 17l51 83h53l-32 -51q15 3 30 3q36 0 56 -18.5t20 -49.5
q0 -20 -9.5 -35t-25 -25.5t-35 -16t-38.5 -5.5q-20 0 -44 3.5t-49 15.5z" />
    <glyph glyph-name="egrave" unicode="&#xe8;" 
d="M326 -13q-61 0 -107 21.5t-76.5 59t-45.5 88.5t-15 111q0 65 18 117t50.5 88.5t77.5 56t98 19.5q59 0 105 -21t76.5 -60.5t46 -96.5t12.5 -129h-387q0 -41 10.5 -74t30 -56t46 -36t58.5 -13q60 0 92.5 26.5t46.5 72.5h95q-8 -38 -27.5 -70t-49.5 -55t-69 -36t-86 -13z
M326 472q-66 0 -104.5 -38.5t-41.5 -116.5h288q0 33 -8.5 61.5t-26.5 49t-45 32.5t-62 12zM165 725h116l91 -116h-77z" />
    <glyph glyph-name="eacute" unicode="&#xe9;" 
d="M326 -13q-61 0 -107 21.5t-76.5 59t-45.5 88.5t-15 111q0 65 18 117t50.5 88.5t77.5 56t98 19.5q59 0 105 -21t76.5 -60.5t46 -96.5t12.5 -129h-387q0 -41 10.5 -74t30 -56t46 -36t58.5 -13q60 0 92.5 26.5t46.5 72.5h95q-8 -38 -27.5 -70t-49.5 -55t-69 -36t-86 -13z
M326 472q-66 0 -104.5 -38.5t-41.5 -116.5h288q0 33 -8.5 61.5t-26.5 49t-45 32.5t-62 12zM357 609h-76l90 116h117z" />
    <glyph glyph-name="ecircumflex" unicode="&#xea;" 
d="M326 -13q-61 0 -107 21.5t-76.5 59t-45.5 88.5t-15 111q0 65 18 117t50.5 88.5t77.5 56t98 19.5q59 0 105 -21t76.5 -60.5t46 -96.5t12.5 -129h-387q0 -41 10.5 -74t30 -56t46 -36t58.5 -13q60 0 92.5 26.5t46.5 72.5h95q-8 -38 -27.5 -70t-49.5 -55t-69 -36t-86 -13z
M326 472q-66 0 -104.5 -38.5t-41.5 -116.5h288q0 33 -8.5 61.5t-26.5 49t-45 32.5t-62 12zM497 609h-96l-78 54l-80 -54h-95l132 116h88z" />
    <glyph glyph-name="edieresis" unicode="&#xeb;" 
d="M326 -13q-61 0 -107 21.5t-76.5 59t-45.5 88.5t-15 111q0 65 18 117t50.5 88.5t77.5 56t98 19.5q59 0 105 -21t76.5 -60.5t46 -96.5t12.5 -129h-387q0 -41 10.5 -74t30 -56t46 -36t58.5 -13q60 0 92.5 26.5t46.5 72.5h95q-8 -38 -27.5 -70t-49.5 -55t-69 -36t-86 -13z
M326 472q-66 0 -104.5 -38.5t-41.5 -116.5h288q0 33 -8.5 61.5t-26.5 49t-45 32.5t-62 12zM166 708h91v-99h-91v99zM486 708v-99h-91v99h91z" />
    <glyph glyph-name="igrave" unicode="&#xec;" 
d="M378 538v-459h153v-79h-397v79h152v380h-152v79h244zM173 725h116l91 -116h-77z" />
    <glyph glyph-name="iacute" unicode="&#xed;" 
d="M378 538v-459h153v-79h-397v79h152v380h-152v79h244zM361 609h-76l90 116h117z" />
    <glyph glyph-name="icircumflex" unicode="&#xee;" 
d="M378 538v-459h153v-79h-397v79h152v380h-152v79h244zM505 609h-96l-78 54l-80 -54h-95l132 116h88z" />
    <glyph glyph-name="idieresis" unicode="&#xef;" 
d="M378 538v-459h153v-79h-397v79h152v380h-152v79h244zM171 708h91v-99h-91v99zM491 708v-99h-91v99h91z" />
    <glyph glyph-name="eth" unicode="&#xf0;" 
d="M430 730l46 -25l-75 -46q36 -29 67 -64t53.5 -77.5t35.5 -94t13 -112.5q0 -83 -18.5 -143.5t-51.5 -101t-79.5 -60t-102.5 -19.5q-114 0 -178 72.5t-64 203.5q0 64 17 114.5t47.5 85.5t73 54t92.5 19q51 0 89.5 -21t64.5 -57l1 1q-22 51 -56.5 88t-78.5 66l-76 -47
l-45 24l79 49q-20 11 -40 20.5t-40 19.5l66 59q23 -11 46 -24t45 -27zM319 67q32 0 60 11.5t48.5 35.5t32 61t11.5 88t-12 87.5t-32.5 60.5t-48.5 35t-59 11q-72 0 -109 -51.5t-37 -142.5q0 -93 36.5 -144.5t109.5 -51.5z" />
    <glyph glyph-name="ntilde" unicode="&#xf1;" 
d="M206 462q10 17 24 32.5t33 27t44 18.5t57 7q49 0 81.5 -15.5t52 -42.5t27.5 -64.5t8 -82.5v-342h-92v310q0 33 -2.5 61.5t-13.5 50.5t-32.5 34.5t-58.5 12.5q-63 0 -95.5 -45t-32.5 -132v-292h-92v538h92v-76zM390 673q20 0 32.5 11t15.5 34h71q-10 -62 -43.5 -87.5
t-73.5 -25.5q-23 0 -41 7.5t-33.5 16t-30 16t-30.5 7.5q-40 0 -45 -44h-71q9 58 40.5 85t74.5 27q23 0 40.5 -7.5t32.5 -16t29.5 -16t31.5 -7.5z" />
    <glyph glyph-name="ograve" unicode="&#xf2;" 
d="M171 267q0 -54 12 -92t33 -63t48.5 -36.5t58.5 -11.5t58.5 11.5t48.5 36.5t33 63t12 92t-12 92t-33 63t-48.5 36.5t-58.5 11.5t-58.5 -11.5t-48.5 -36.5t-33 -63t-12 -92zM74 267q0 73 21.5 126t57 87t80 50.5t90.5 16.5t90.5 -16.5t80 -50.5t57 -87t21.5 -126
t-21.5 -126t-57 -87t-80 -50.5t-90.5 -16.5t-90.5 16.5t-80 50.5t-57 87t-21.5 126zM166 725h116l91 -116h-77z" />
    <glyph glyph-name="oacute" unicode="&#xf3;" 
d="M171 267q0 -54 12 -92t33 -63t48.5 -36.5t58.5 -11.5t58.5 11.5t48.5 36.5t33 63t12 92t-12 92t-33 63t-48.5 36.5t-58.5 11.5t-58.5 -11.5t-48.5 -36.5t-33 -63t-12 -92zM74 267q0 73 21.5 126t57 87t80 50.5t90.5 16.5t90.5 -16.5t80 -50.5t57 -87t21.5 -126
t-21.5 -126t-57 -87t-80 -50.5t-90.5 -16.5t-90.5 16.5t-80 50.5t-57 87t-21.5 126zM355 609h-76l90 116h117z" />
    <glyph glyph-name="ocircumflex" unicode="&#xf4;" 
d="M171 267q0 -54 12 -92t33 -63t48.5 -36.5t58.5 -11.5t58.5 11.5t48.5 36.5t33 63t12 92t-12 92t-33 63t-48.5 36.5t-58.5 11.5t-58.5 -11.5t-48.5 -36.5t-33 -63t-12 -92zM74 267q0 73 21.5 126t57 87t80 50.5t90.5 16.5t90.5 -16.5t80 -50.5t57 -87t21.5 -126
t-21.5 -126t-57 -87t-80 -50.5t-90.5 -16.5t-90.5 16.5t-80 50.5t-57 87t-21.5 126zM497 609h-96l-78 54l-80 -54h-95l132 116h88z" />
    <glyph glyph-name="otilde" unicode="&#xf5;" 
d="M171 267q0 -54 12 -92t33 -63t48.5 -36.5t58.5 -11.5t58.5 11.5t48.5 36.5t33 63t12 92t-12 92t-33 63t-48.5 36.5t-58.5 11.5t-58.5 -11.5t-48.5 -36.5t-33 -63t-12 -92zM74 267q0 73 21.5 126t57 87t80 50.5t90.5 16.5t90.5 -16.5t80 -50.5t57 -87t21.5 -126
t-21.5 -126t-57 -87t-80 -50.5t-90.5 -16.5t-90.5 16.5t-80 50.5t-57 87t-21.5 126zM388 673q20 0 32.5 11t15.5 34h71q-10 -62 -43.5 -87.5t-73.5 -25.5q-23 0 -41 7.5t-33.5 16t-30 16t-30.5 7.5q-40 0 -45 -44h-71q9 58 40.5 85t74.5 27q23 0 40.5 -7.5t32.5 -16
t29.5 -16t31.5 -7.5z" />
    <glyph glyph-name="odieresis" unicode="&#xf6;" 
d="M171 267q0 -54 12 -92t33 -63t48.5 -36.5t58.5 -11.5t58.5 11.5t48.5 36.5t33 63t12 92t-12 92t-33 63t-48.5 36.5t-58.5 11.5t-58.5 -11.5t-48.5 -36.5t-33 -63t-12 -92zM74 267q0 73 21.5 126t57 87t80 50.5t90.5 16.5t90.5 -16.5t80 -50.5t57 -87t21.5 -126
t-21.5 -126t-57 -87t-80 -50.5t-90.5 -16.5t-90.5 16.5t-80 50.5t-57 87t-21.5 126zM163 708h91v-99h-91v99zM483 708v-99h-91v99h91z" />
    <glyph glyph-name="divide" unicode="&#xf7;" 
d="M267 158h115v-115h-115v115zM267 495h115v-115h-115v115zM62 226v86h522v-86h-522z" />
    <glyph glyph-name="oslash" unicode="&#xf8;" 
d="M74 267q0 73 21.5 126t57 87t80 50.5t90.5 16.5q43 0 85 -14.5t76 -44.5l43 49l40 -35l-46 -53q23 -34 37 -79t14 -103q0 -73 -21.5 -126t-57 -87t-80 -50.5t-90.5 -16.5q-42 0 -82.5 13t-74.5 41l-47 -54l-40 36l50 57q-26 34 -40.5 80.5t-14.5 106.5zM171 267
q0 -69 20 -115l237 272q-20 23 -47.5 34.5t-57.5 11.5q-31 0 -58.5 -11.5t-48.5 -36.5t-33 -63t-12 -92zM475 267q0 33 -5 59.5t-13 48.5l-235 -270q40 -41 101 -41q31 0 58.5 11.5t48.5 36.5t33 63t12 92z" />
    <glyph glyph-name="ugrave" unicode="&#xf9;" 
d="M439 69q-22 -35 -58 -58.5t-100 -23.5q-49 0 -81 15.5t-51 42.5t-27 64.5t-8 82.5v346h92v-314q0 -33 2.5 -61.5t12.5 -50t31 -34t59 -12.5q63 0 95.5 44.5t32.5 131.5v296h92v-538h-92v69zM168 725h116l91 -116h-77z" />
    <glyph glyph-name="uacute" unicode="&#xfa;" 
d="M439 69q-22 -35 -58 -58.5t-100 -23.5q-49 0 -81 15.5t-51 42.5t-27 64.5t-8 82.5v346h92v-314q0 -33 2.5 -61.5t12.5 -50t31 -34t59 -12.5q63 0 95.5 44.5t32.5 131.5v296h92v-538h-92v69zM351 609h-76l90 116h117z" />
    <glyph glyph-name="ucircumflex" unicode="&#xfb;" 
d="M439 69q-22 -35 -58 -58.5t-100 -23.5q-49 0 -81 15.5t-51 42.5t-27 64.5t-8 82.5v346h92v-314q0 -33 2.5 -61.5t12.5 -50t31 -34t59 -12.5q63 0 95.5 44.5t32.5 131.5v296h92v-538h-92v69zM497 609h-96l-78 54l-80 -54h-95l132 116h88z" />
    <glyph glyph-name="udieresis" unicode="&#xfc;" 
d="M439 69q-22 -35 -58 -58.5t-100 -23.5q-49 0 -81 15.5t-51 42.5t-27 64.5t-8 82.5v346h92v-314q0 -33 2.5 -61.5t12.5 -50t31 -34t59 -12.5q63 0 95.5 44.5t32.5 131.5v296h92v-538h-92v69zM163 708h91v-99h-91v99zM483 708v-99h-91v99h91z" />
    <glyph glyph-name="yacute" unicode="&#xfd;" 
d="M77 -175v79h97q21 0 35.5 2.5t26 11t20.5 25t20 45.5l4 12l-201 538h101l146 -415l143 415h95l-199 -561q-14 -40 -28.5 -68.5t-34 -47t-48 -27.5t-71.5 -9h-106zM356 609h-76l90 116h117z" />
    <glyph glyph-name="thorn" unicode="&#xfe;" 
d="M201 457q23 39 61 64.5t98 25.5q46 0 86 -19t69.5 -55t46 -88t16.5 -118q0 -67 -16.5 -119t-46 -88t-69.5 -54.5t-86 -18.5q-60 0 -98 25.5t-61 63.5v-251h-91v900h91v-268zM197 267q0 -53 11.5 -91.5t31.5 -63.5t46 -37t55 -12q69 0 104 53.5t35 150.5t-35 150t-104 53
q-29 0 -55 -12t-46 -36.5t-31.5 -63t-11.5 -91.5z" />
    <glyph glyph-name="ydieresis" unicode="&#xff;" 
d="M77 -175v79h97q21 0 35.5 2.5t26 11t20.5 25t20 45.5l4 12l-201 538h101l146 -415l143 415h95l-199 -561q-14 -40 -28.5 -68.5t-34 -47t-48 -27.5t-71.5 -9h-106zM163 708h91v-99h-91v99zM483 708v-99h-91v99h91z" />
    <glyph glyph-name="Abreve" unicode="&#x102;" 
d="M612 0h-102l-49 155h-277l-48 -155h-102l238 725h102zM212 244h221l-110 354zM481 874q-7 -52 -44.5 -85t-114.5 -33q-75 0 -113 33t-44 85h77q8 -58 81 -58q71 0 80 58h78z" />
    <glyph glyph-name="Amacron" unicode="&#x100;" 
d="M612 0h-102l-49 155h-277l-48 -155h-102l238 725h102zM212 244h221l-110 354zM173 779v76h300v-76h-300z" />
    <glyph glyph-name="Aogonek" unicode="&#x104;" 
d="M612 0h-1q-38 -19 -63 -39t-25 -43t20 -31.5t46 -8.5q29 0 49 9v-61q-13 -5 -30.5 -8.5t-38.5 -3.5q-22 0 -45.5 5t-42.5 15.5t-31.5 28t-12.5 42.5q0 30 17 52.5t55 42.5h1l-49 155h-277l-48 -155h-102l238 725h102zM212 244h221l-110 354z" />
    <glyph glyph-name="Cacute" unicode="&#x106;" 
d="M578 225q-19 -117 -86 -177.5t-166 -60.5q-66 0 -115 28t-81.5 78t-48 119t-15.5 152q0 84 17.5 153.5t51 118.5t83.5 76t115 27q47 0 87.5 -17.5t72 -49.5t53 -77t30.5 -100h-97q-5 31 -15.5 59t-29 49.5t-44.5 34t-60 12.5q-79 0 -122.5 -73t-43.5 -213
q0 -67 10.5 -120.5t31.5 -91t52.5 -57.5t73.5 -20q34 0 60.5 11t45 31t29.5 47.5t16 60.5h95zM357 761h-90l109 113h129z" />
    <glyph glyph-name="Ccaron" unicode="&#x10c;" 
d="M578 225q-19 -117 -86 -177.5t-166 -60.5q-66 0 -115 28t-81.5 78t-48 119t-15.5 152q0 84 17.5 153.5t51 118.5t83.5 76t115 27q47 0 87.5 -17.5t72 -49.5t53 -77t30.5 -100h-97q-5 31 -15.5 59t-29 49.5t-44.5 34t-60 12.5q-79 0 -122.5 -73t-43.5 -213
q0 -67 10.5 -120.5t31.5 -91t52.5 -57.5t73.5 -20q34 0 60.5 11t45 31t29.5 47.5t16 60.5h95zM148 874h106l69 -56l69 56h106l-134 -113h-84z" />
    <glyph glyph-name="Ccircumflex" unicode="&#x108;" 
d="M578 225q-19 -117 -86 -177.5t-166 -60.5q-66 0 -115 28t-81.5 78t-48 119t-15.5 152q0 84 17.5 153.5t51 118.5t83.5 76t115 27q47 0 87.5 -17.5t72 -49.5t53 -77t30.5 -100h-97q-5 31 -15.5 59t-29 49.5t-44.5 34t-60 12.5q-79 0 -122.5 -73t-43.5 -213
q0 -67 10.5 -120.5t31.5 -91t52.5 -57.5t73.5 -20q34 0 60.5 11t45 31t29.5 47.5t16 60.5h95zM498 761h-106l-69 56l-69 -56h-106l134 113h84z" />
    <glyph glyph-name="Cdotaccent" unicode="&#x10a;" 
d="M578 225q-19 -117 -86 -177.5t-166 -60.5q-66 0 -115 28t-81.5 78t-48 119t-15.5 152q0 84 17.5 153.5t51 118.5t83.5 76t115 27q47 0 87.5 -17.5t72 -49.5t53 -77t30.5 -100h-97q-5 31 -15.5 59t-29 49.5t-44.5 34t-60 12.5q-79 0 -122.5 -73t-43.5 -213
q0 -67 10.5 -120.5t31.5 -91t52.5 -57.5t73.5 -20q34 0 60.5 11t45 31t29.5 47.5t16 60.5h95zM368 869v-99h-91v99h91z" />
    <glyph glyph-name="Dcaron" unicode="&#x10e;" 
d="M493 363q0 93 -24.5 147t-64 81.5t-89 35.5t-100.5 8h-26v-545h26q51 0 100.5 8t89 36t64 82.5t24.5 146.5zM218 725q77 0 145 -17.5t118.5 -59.5t79.5 -111.5t29 -173.5t-29 -173.5t-79.5 -111.5t-118.5 -60t-145 -18h-124v725h124zM146 874h106l69 -56l69 56h106
l-134 -113h-84z" />
    <glyph glyph-name="Dcroat" unicode="&#x110;" 
d="M229 725q77 0 145 -17.5t118.5 -59.5t79.5 -111.5t29 -173.5t-29 -173.5t-79.5 -111.5t-118.5 -60t-145 -18h-124v323h-62v90h62v312h124zM504 363q0 93 -24.5 147t-64 81.5t-89 35.5t-100.5 8h-26v-222h168v-90h-168v-233h26q51 0 100.5 8t89 36t64 82.5t24.5 146.5z
" />
    <glyph glyph-name="Ebreve" unicode="&#x114;" 
d="M112 725h432v-90h-337v-216h317v-90h-317v-239h337v-90h-432v725zM484 874q-7 -52 -44.5 -85t-114.5 -33q-75 0 -113 33t-44 85h77q8 -58 81 -58q71 0 80 58h78z" />
    <glyph glyph-name="Ecaron" unicode="&#x11a;" 
d="M112 725h432v-90h-337v-216h317v-90h-317v-239h337v-90h-432v725zM161 874h106l69 -56l69 56h106l-134 -113h-84z" />
    <glyph glyph-name="Emacron" unicode="&#x112;" 
d="M112 725h432v-90h-337v-216h317v-90h-317v-239h337v-90h-432v725zM185 779v76h300v-76h-300z" />
    <glyph glyph-name="Eogonek" unicode="&#x118;" 
d="M544 0q-38 -19 -63 -39t-25 -43t20 -31.5t45 -8.5q30 0 50 9v-61q-13 -5 -30.5 -8.5t-38.5 -3.5q-22 0 -45 5t-41.5 15.5t-30.5 28t-12 42.5q0 30 19.5 52.5t60.5 42.5h91zM112 725h432v-90h-337v-216h317v-90h-317v-239h337v-90h-432v725z" />
    <glyph glyph-name="Edotaccent" unicode="&#x116;" 
d="M112 725h432v-90h-337v-216h317v-90h-317v-239h337v-90h-432v725zM390 869v-99h-91v99h91z" />
    <glyph glyph-name="Gbreve" unicode="&#x11e;" 
d="M325 650q-87 0 -131 -73t-44 -213q0 -67 10.5 -120.5t32 -91t54.5 -57.5t78 -20q33 0 63.5 8.5t54 29.5t37.5 57.5t14 92.5v23h-167v90h254v-376h-72l-4 91q-32 -56 -75 -80t-109 -24q-70 0 -121 28t-84 78t-48.5 119t-15.5 152q0 84 17.5 153t52.5 118t87 76t121 27
q102 0 167 -63t82 -174h-98q-5 31 -15 58.5t-28.5 47.5t-46 31.5t-66.5 11.5zM487 874q-7 -52 -44.5 -85t-114.5 -33q-75 0 -113 33t-44 85h77q8 -58 81 -58q71 0 80 58h78z" />
    <glyph glyph-name="Gcircumflex" unicode="&#x11c;" 
d="M325 650q-87 0 -131 -73t-44 -213q0 -67 10.5 -120.5t32 -91t54.5 -57.5t78 -20q33 0 63.5 8.5t54 29.5t37.5 57.5t14 92.5v23h-167v90h254v-376h-72l-4 91q-32 -56 -75 -80t-109 -24q-70 0 -121 28t-84 78t-48.5 119t-15.5 152q0 84 17.5 153t52.5 118t87 76t121 27
q102 0 167 -63t82 -174h-98q-5 31 -15 58.5t-28.5 47.5t-46 31.5t-66.5 11.5zM504 761h-106l-69 56l-69 -56h-106l134 113h84z" />
    <glyph glyph-name="Gcommaaccent" unicode="&#x122;" 
d="M325 650q-87 0 -131 -73t-44 -213q0 -67 10.5 -120.5t32 -91t54.5 -57.5t78 -20q33 0 63.5 8.5t54 29.5t37.5 57.5t14 92.5v23h-167v90h254v-376h-72l-4 91q-32 -56 -75 -80t-109 -24q-70 0 -121 28t-84 78t-48.5 119t-15.5 152q0 84 17.5 153t52.5 118t87 76t121 27
q102 0 167 -63t82 -174h-98q-5 31 -15 58.5t-28.5 47.5t-46 31.5t-66.5 11.5zM291 -36h95v-95l-44 -90h-54l39 96h-36v89z" />
    <glyph glyph-name="Gdotaccent" unicode="&#x120;" 
d="M325 650q-87 0 -131 -73t-44 -213q0 -67 10.5 -120.5t32 -91t54.5 -57.5t78 -20q33 0 63.5 8.5t54 29.5t37.5 57.5t14 92.5v23h-167v90h254v-376h-72l-4 91q-32 -56 -75 -80t-109 -24q-70 0 -121 28t-84 78t-48.5 119t-15.5 152q0 84 17.5 153t52.5 118t87 76t121 27
q102 0 167 -63t82 -174h-98q-5 31 -15 58.5t-28.5 47.5t-46 31.5t-66.5 11.5zM383 869v-99h-91v99h91z" />
    <glyph glyph-name="Hbar" unicode="&#x126;" 
d="M557 726v-109h54v-76h-54v-541h-95v329h-280v-329h-95v541h-52v76h52v109h95v-109h280v109h95zM462 419v122h-280v-122h280z" />
    <glyph glyph-name="Hcircumflex" unicode="&#x124;" 
d="M558 726v-726h-95v329h-280v-329h-95v726h95v-307h280v307h95zM498 761h-106l-69 56l-69 -56h-106l134 113h84z" />
    <glyph glyph-name="Ibreve" unicode="&#x12c;" 
d="M92 725h461v-90h-183v-545h183v-90h-461v90h183v545h-183v90zM481 874q-7 -52 -44.5 -85t-114.5 -33q-75 0 -113 33t-44 85h77q8 -58 81 -58q71 0 80 58h78z" />
    <glyph glyph-name="Idotaccent" unicode="&#x130;" 
d="M92 725h461v-90h-183v-545h183v-90h-461v90h183v545h-183v90zM368 869v-99h-91v99h91z" />
    <glyph glyph-name="Imacron" unicode="&#x12a;" 
d="M92 725h461v-90h-183v-545h183v-90h-461v90h183v545h-183v90zM173 779v76h300v-76h-300z" />
    <glyph glyph-name="Iogonek" unicode="&#x12e;" 
d="M92 725h461v-90h-183v-545h183v-90h-461v90h183v545h-183v90zM371 0q-38 -19 -63 -39t-25 -43t20 -31.5t45 -8.5q30 0 50 9v-61q-13 -5 -30.5 -8.5t-38.5 -3.5q-22 0 -45 5t-41.5 15.5t-30.5 28t-12 42.5q0 30 19.5 52.5t60.5 42.5h91z" />
    <glyph glyph-name="Itilde" unicode="&#x128;" 
d="M92 725h461v-90h-183v-545h183v-90h-461v90h183v545h-183v90zM389 828q41 0 47 45h71q-10 -62 -43 -87.5t-73 -25.5q-23 0 -41 7.5t-34 16t-30.5 16t-30.5 7.5q-40 0 -45 -44h-71q9 59 40.5 85.5t74.5 26.5q23 0 40.5 -7.5t33 -16t30 -16t31.5 -7.5z" />
    <glyph glyph-name="uni1ECA" unicode="&#x1eca;" 
d="M92 725h461v-90h-183v-545h183v-90h-461v90h183v545h-183v90zM368 -75v-99h-91v99h91z" />
    <glyph glyph-name="Jcircumflex" unicode="&#x134;" 
d="M520 725v-495q0 -119 -52 -181t-159 -62q-49 0 -88.5 16t-68 47t-44 74.5t-15.5 99.5h95q0 -76 29 -113t92 -37q26 0 47.5 6t36.5 23.5t23.5 48t8.5 79.5v404h-279v90h374zM509 761h-106l-69 56l-69 -56h-106l134 113h84z" />
    <glyph glyph-name="Kcommaaccent" unicode="&#x136;" 
d="M203 378l259 347h112l-219 -283l247 -442h-109l-200 362l-90 -116v-246h-95v725h95v-347zM295 -36h95v-95l-44 -90h-54l39 96h-36v89z" />
    <glyph glyph-name="Lacute" unicode="&#x139;" 
d="M220 90h356v-90h-451v725h95v-635zM216 761h-90l109 113h129z" />
    <glyph glyph-name="Lcaron" unicode="&#x13d;" 
d="M220 90h356v-90h-451v725h95v-635zM407 555h-58l30 170h98z" />
    <glyph glyph-name="Lcommaaccent" unicode="&#x13b;" 
d="M220 90h356v-90h-451v725h95v-635zM318 -36h95v-95l-44 -90h-54l39 96h-36v89z" />
    <glyph glyph-name="Ldot" unicode="&#x13f;" 
d="M467 438v-99h-91v99h91zM220 90h356v-90h-451v725h95v-635z" />
    <glyph glyph-name="Lslash" unicode="&#x141;" 
d="M264 440l148 102v-91l-148 -102v-259h356v-90h-451v284l-134 -91v91l134 91v350h95v-285z" />
    <glyph glyph-name="Nacute" unicode="&#x143;" 
d="M415 0l-232 619v-619h-95v725h142l232 -617v617h95v-725h-142zM382 761h-90l109 113h129z" />
    <glyph glyph-name="Ncaron" unicode="&#x147;" 
d="M415 0l-232 619v-619h-95v725h142l232 -617v617h95v-725h-142zM173 874h106l69 -56l69 56h106l-134 -113h-84z" />
    <glyph glyph-name="Ncommaaccent" unicode="&#x145;" 
d="M415 0l-232 619v-619h-95v725h142l232 -617v617h95v-725h-142zM266 -36h95v-95l-44 -90h-54l39 96h-36v89z" />
    <glyph glyph-name="OE" unicode="&#x152;" 
d="M223 738q26 0 45.5 -8.5t35.5 -24.5v20h302v-90h-208v-216h188v-90h-188v-239h208v-90h-302v20q-16 -16 -35.5 -24.5t-45.5 -8.5q-52 0 -87.5 26.5t-57 75.5t-31 118.5t-9.5 155.5t9.5 155.5t31 118t57 75t87.5 26.5zM223 650q-50 0 -68.5 -75t-18.5 -212t18.5 -212.5
t68.5 -75.5q49 0 68 75.5t19 212.5t-19 212t-68 75z" />
    <glyph glyph-name="Obreve" unicode="&#x14e;" 
d="M323 738q68 0 119 -28t84.5 -77.5t50.5 -118.5t17 -151t-17 -151t-50.5 -119t-84.5 -78t-119 -28t-119 28t-84.5 78t-50.5 119t-17 151t17 151t50.5 118.5t84.5 77.5t119 28zM323 650q-90 0 -131.5 -74.5t-41.5 -212.5t41.5 -213t131.5 -75t131.5 75.5t41.5 212.5
t-41.5 212t-131.5 75zM481 874q-7 -52 -44.5 -85t-114.5 -33q-75 0 -113 33t-44 85h77q8 -58 81 -58q71 0 80 58h78z" />
    <glyph glyph-name="Ohungarumlaut" unicode="&#x150;" 
d="M323 738q68 0 119 -28t84.5 -77.5t50.5 -118.5t17 -151t-17 -151t-50.5 -119t-84.5 -78t-119 -28t-119 28t-84.5 78t-50.5 119t-17 151t17 151t50.5 118.5t84.5 77.5t119 28zM323 650q-90 0 -131.5 -74.5t-41.5 -212.5t41.5 -213t131.5 -75t131.5 75.5t41.5 212.5
t-41.5 212t-131.5 75zM257 761h-90l109 113h129zM424 761h-91l110 113h129z" />
    <glyph glyph-name="Omacron" unicode="&#x14c;" 
d="M323 738q68 0 119 -28t84.5 -77.5t50.5 -118.5t17 -151t-17 -151t-50.5 -119t-84.5 -78t-119 -28t-119 28t-84.5 78t-50.5 119t-17 151t17 151t50.5 118.5t84.5 77.5t119 28zM323 650q-90 0 -131.5 -74.5t-41.5 -212.5t41.5 -213t131.5 -75t131.5 75.5t41.5 212.5
t-41.5 212t-131.5 75zM173 779v76h300v-76h-300z" />
    <glyph glyph-name="uni1ECC" unicode="&#x1ecc;" 
d="M323 738q68 0 119 -28t84.5 -77.5t50.5 -118.5t17 -151t-17 -151t-50.5 -119t-84.5 -78t-119 -28t-119 28t-84.5 78t-50.5 119t-17 151t17 151t50.5 118.5t84.5 77.5t119 28zM323 650q-90 0 -131.5 -74.5t-41.5 -212.5t41.5 -213t131.5 -75t131.5 75.5t41.5 212.5
t-41.5 212t-131.5 75zM368 -75v-99h-91v99h91z" />
    <glyph glyph-name="Racute" unicode="&#x154;" 
d="M339 306q-13 -1 -26 -1h-27h-82v-305h-95v725h177q59 0 110.5 -8t89 -30.5t59 -63t21.5 -105.5q0 -85 -35.5 -130t-95.5 -64l154 -324h-108zM204 635v-240h93q36 0 67 3t54.5 15.5t36.5 36.5t13 66t-13 66t-36.5 35.5t-54.5 14.5t-67 3h-93zM333 761h-90l109 113h129z
" />
    <glyph glyph-name="Rcaron" unicode="&#x158;" 
d="M339 306q-13 -1 -26 -1h-27h-82v-305h-95v725h177q59 0 110.5 -8t89 -30.5t59 -63t21.5 -105.5q0 -85 -35.5 -130t-95.5 -64l154 -324h-108zM204 635v-240h93q36 0 67 3t54.5 15.5t36.5 36.5t13 66t-13 66t-36.5 35.5t-54.5 14.5t-67 3h-93zM145 874h106l69 -56l69 56
h106l-134 -113h-84z" />
    <glyph glyph-name="Rcommaaccent" unicode="&#x156;" 
d="M339 306q-13 -1 -26 -1h-27h-82v-305h-95v725h177q59 0 110.5 -8t89 -30.5t59 -63t21.5 -105.5q0 -85 -35.5 -130t-95.5 -64l154 -324h-108zM204 635v-240h93q36 0 67 3t54.5 15.5t36.5 36.5t13 66t-13 66t-36.5 35.5t-54.5 14.5t-67 3h-93zM284 -36h95v-95l-44 -90h-54
l39 96h-36v89z" />
    <glyph glyph-name="Sacute" unicode="&#x15a;" 
d="M265 342q-36 8 -69 23.5t-58.5 39.5t-40.5 57.5t-15 76.5q0 47 19 84t51.5 62.5t75.5 39t92 13.5q42 0 82.5 -11.5t74 -36.5t56 -63.5t28.5 -92.5h-94q-4 33 -19 55t-36.5 35.5t-46.5 19.5t-50 6t-49 -6.5t-43 -19.5t-31 -33.5t-12 -48.5q0 -48 30.5 -73t74.5 -35l72 -16
q44 -10 83.5 -25.5t69.5 -40t48 -61t18 -88.5q0 -51 -18.5 -91t-51.5 -67.5t-78 -42.5t-97 -15q-55 0 -102 17t-81.5 48.5t-55 75.5t-23.5 98h94q8 -73 54.5 -112t116.5 -39q27 0 53 7t47 22t33.5 38t12.5 54q0 28 -10 49t-28 36t-43 25t-55 17l-79 19v0zM346 761h-90
l109 113h129z" />
    <glyph glyph-name="Scaron" unicode="&#x160;" 
d="M265 342q-36 8 -69 23.5t-58.5 39.5t-40.5 57.5t-15 76.5q0 47 19 84t51.5 62.5t75.5 39t92 13.5q42 0 82.5 -11.5t74 -36.5t56 -63.5t28.5 -92.5h-94q-4 33 -19 55t-36.5 35.5t-46.5 19.5t-50 6t-49 -6.5t-43 -19.5t-31 -33.5t-12 -48.5q0 -48 30.5 -73t74.5 -35l72 -16
q44 -10 83.5 -25.5t69.5 -40t48 -61t18 -88.5q0 -51 -18.5 -91t-51.5 -67.5t-78 -42.5t-97 -15q-55 0 -102 17t-81.5 48.5t-55 75.5t-23.5 98h94q8 -73 54.5 -112t116.5 -39q27 0 53 7t47 22t33.5 38t12.5 54q0 28 -10 49t-28 36t-43 25t-55 17l-79 19v0zM142 874h106
l69 -56l69 56h106l-134 -113h-84z" />
    <glyph glyph-name="Scedilla" unicode="&#x15e;" 
d="M265 342q-36 8 -69 23.5t-58.5 39.5t-40.5 57.5t-15 76.5q0 47 19 84t51.5 62.5t75.5 39t92 13.5q42 0 82.5 -11.5t74 -36.5t56 -63.5t28.5 -92.5h-94q-4 33 -19 55t-36.5 35.5t-46.5 19.5t-50 6t-49 -6.5t-43 -19.5t-31 -33.5t-12 -48.5q0 -48 30.5 -73t74.5 -35l72 -16
q44 -10 83.5 -25.5t69.5 -40t48 -61t18 -88.5q0 -51 -18.5 -91t-51.5 -67.5t-78 -42.5t-97 -15q-55 0 -102 17t-81.5 48.5t-55 75.5t-23.5 98h94q8 -73 54.5 -112t116.5 -39q27 0 53 7t47 22t33.5 38t12.5 54q0 28 -10 49t-28 36t-43 25t-55 17l-79 19v0zM263 -136
q13 -6 28.5 -10t29.5 -4q22 0 41.5 7t19.5 25q0 15 -13 22.5t-31 7.5q-8 0 -19 -2t-19 -7l-30 17l51 83h53l-32 -51q15 3 30 3q36 0 56 -18.5t20 -49.5q0 -20 -9.5 -35t-25 -25.5t-35 -16t-38.5 -5.5q-20 0 -44 3.5t-49 15.5z" />
    <glyph glyph-name="Scircumflex" unicode="&#x15c;" 
d="M265 342q-36 8 -69 23.5t-58.5 39.5t-40.5 57.5t-15 76.5q0 47 19 84t51.5 62.5t75.5 39t92 13.5q42 0 82.5 -11.5t74 -36.5t56 -63.5t28.5 -92.5h-94q-4 33 -19 55t-36.5 35.5t-46.5 19.5t-50 6t-49 -6.5t-43 -19.5t-31 -33.5t-12 -48.5q0 -48 30.5 -73t74.5 -35l72 -16
q44 -10 83.5 -25.5t69.5 -40t48 -61t18 -88.5q0 -51 -18.5 -91t-51.5 -67.5t-78 -42.5t-97 -15q-55 0 -102 17t-81.5 48.5t-55 75.5t-23.5 98h94q8 -73 54.5 -112t116.5 -39q27 0 53 7t47 22t33.5 38t12.5 54q0 28 -10 49t-28 36t-43 25t-55 17l-79 19v0zM494 761h-106
l-69 56l-69 -56h-106l134 113h84z" />
    <glyph glyph-name="Scommaaccent" unicode="&#x218;" 
d="M265 342q-36 8 -69 23.5t-58.5 39.5t-40.5 57.5t-15 76.5q0 47 19 84t51.5 62.5t75.5 39t92 13.5q42 0 82.5 -11.5t74 -36.5t56 -63.5t28.5 -92.5h-94q-4 33 -19 55t-36.5 35.5t-46.5 19.5t-50 6t-49 -6.5t-43 -19.5t-31 -33.5t-12 -48.5q0 -48 30.5 -73t74.5 -35l72 -16
q44 -10 83.5 -25.5t69.5 -40t48 -61t18 -88.5q0 -51 -18.5 -91t-51.5 -67.5t-78 -42.5t-97 -15q-55 0 -102 17t-81.5 48.5t-55 75.5t-23.5 98h94q8 -73 54.5 -112t116.5 -39q27 0 53 7t47 22t33.5 38t12.5 54q0 28 -10 49t-28 36t-43 25t-55 17l-79 19v0zM300 -36h95v-95
l-44 -90h-54l39 96h-36v89z" />
    <glyph glyph-name="Tcaron" unicode="&#x164;" 
d="M275 635h-218v90h531v-90h-218v-635h-95v635zM148 874h106l69 -56l69 56h106l-134 -113h-84z" />
    <glyph glyph-name="uni0162" unicode="&#x162;" 
d="M275 635h-218v90h531v-90h-218v-635h-95v635zM275 -36h95v-95l-44 -90h-54l39 96h-36v89z" />
    <glyph glyph-name="Tcommaaccent" unicode="&#x21a;" 
d="M275 635h-218v90h531v-90h-218v-635h-95v635zM275 -36h95v-95l-44 -90h-54l39 96h-36v89z" />
    <glyph glyph-name="Ubreve" unicode="&#x16c;" 
d="M174 725v-441q0 -53 6 -92.5t22 -65.5t45 -38.5t75 -12.5q47 0 76 14.5t45.5 42t22.5 68.5t6 95v430h95v-422q0 -80 -11.5 -139t-40 -98.5t-75.5 -59t-118 -19.5q-68 0 -114.5 16.5t-75 53t-41 95t-12.5 143.5v430h95zM487 874q-7 -52 -44.5 -85t-114.5 -33
q-75 0 -113 33t-44 85h77q8 -58 81 -58q71 0 80 58h78z" />
    <glyph glyph-name="Uhungarumlaut" unicode="&#x170;" 
d="M174 725v-441q0 -53 6 -92.5t22 -65.5t45 -38.5t75 -12.5q47 0 76 14.5t45.5 42t22.5 68.5t6 95v430h95v-422q0 -80 -11.5 -139t-40 -98.5t-75.5 -59t-118 -19.5q-68 0 -114.5 16.5t-75 53t-41 95t-12.5 143.5v430h95zM275 761h-90l109 113h129zM442 761h-91l110 113h129
z" />
    <glyph glyph-name="Umacron" unicode="&#x16a;" 
d="M174 725v-441q0 -53 6 -92.5t22 -65.5t45 -38.5t75 -12.5q47 0 76 14.5t45.5 42t22.5 68.5t6 95v430h95v-422q0 -80 -11.5 -139t-40 -98.5t-75.5 -59t-118 -19.5q-68 0 -114.5 16.5t-75 53t-41 95t-12.5 143.5v430h95zM173 779v76h300v-76h-300z" />
    <glyph glyph-name="Uogonek" unicode="&#x172;" 
d="M174 725v-441q0 -53 6 -92.5t22 -65.5t45 -38.5t75 -12.5q47 0 76 14.5t45.5 42t22.5 68.5t6 95v430h95v-422q0 -80 -11.5 -139t-40 -98.5t-75.5 -59t-118 -19.5q-68 0 -114.5 16.5t-75 53t-41 95t-12.5 143.5v430h95zM419 0q-38 -19 -63 -39t-25 -43t20 -31.5t45 -8.5
q30 0 50 9v-61q-13 -5 -30.5 -8.5t-38.5 -3.5q-22 0 -45 5t-41.5 15.5t-30.5 28t-12 42.5q0 30 19.5 52.5t60.5 42.5h91z" />
    <glyph glyph-name="Uring" unicode="&#x16e;" 
d="M174 725v-441q0 -53 6 -92.5t22 -65.5t45 -38.5t75 -12.5q47 0 76 14.5t45.5 42t22.5 68.5t6 95v430h95v-422q0 -80 -11.5 -139t-40 -98.5t-75.5 -59t-118 -19.5q-68 0 -114.5 16.5t-75 53t-41 95t-12.5 143.5v430h95zM323 921q38 0 64.5 -23.5t26.5 -61.5
q0 -37 -26.5 -61t-64.5 -24t-64.5 24t-26.5 61q0 38 27 61.5t64 23.5zM323 879q-17 0 -30.5 -12t-13.5 -31q0 -18 13.5 -30t30.5 -12t30 12t13 30q0 19 -13 31t-30 12z" />
    <glyph glyph-name="Utilde" unicode="&#x168;" 
d="M174 725v-441q0 -53 6 -92.5t22 -65.5t45 -38.5t75 -12.5q47 0 76 14.5t45.5 42t22.5 68.5t6 95v430h95v-422q0 -80 -11.5 -139t-40 -98.5t-75.5 -59t-118 -19.5q-68 0 -114.5 16.5t-75 53t-41 95t-12.5 143.5v430h95zM389 828q41 0 47 45h71q-10 -62 -43 -87.5
t-73 -25.5q-23 0 -41 7.5t-34 16t-30.5 16t-30.5 7.5q-40 0 -45 -44h-71q9 59 40.5 85.5t74.5 26.5q23 0 40.5 -7.5t33 -16t30 -16t31.5 -7.5z" />
    <glyph glyph-name="uni1EE4" unicode="&#x1ee4;" 
d="M174 725v-441q0 -53 6 -92.5t22 -65.5t45 -38.5t75 -12.5q47 0 76 14.5t45.5 42t22.5 68.5t6 95v430h95v-422q0 -80 -11.5 -139t-40 -98.5t-75.5 -59t-118 -19.5q-68 0 -114.5 16.5t-75 53t-41 95t-12.5 143.5v430h95zM368 -75v-99h-91v99h91z" />
    <glyph glyph-name="Wacute" unicode="&#x1e82;" 
d="M454 138l54 587h95l-73 -725h-123l-84 378l-84 -378h-124l-72 725h95l53 -587l80 366h103zM372 761h-90l109 113h129z" />
    <glyph glyph-name="Wcircumflex" unicode="&#x174;" 
d="M454 138l54 587h95l-73 -725h-123l-84 378l-84 -378h-124l-72 725h95l53 -587l80 366h103zM498 761h-106l-69 56l-69 -56h-106l134 113h84z" />
    <glyph glyph-name="Wdieresis" unicode="&#x1e84;" 
d="M454 138l54 587h95l-73 -725h-123l-84 378l-84 -378h-124l-72 725h95l53 -587l80 366h103zM254 868v-99h-91v99h91zM483 868v-99h-91v99h91z" />
    <glyph glyph-name="Wgrave" unicode="&#x1e80;" 
d="M454 138l54 587h95l-73 -725h-123l-84 378l-84 -378h-124l-72 725h95l53 -587l80 366h103zM137 874h129l109 -113h-90z" />
    <glyph glyph-name="Ycircumflex" unicode="&#x176;" 
d="M509 725h111l-250 -453v-272h-95v272l-250 453h111l187 -355zM498 761h-106l-69 56l-69 -56h-106l134 113h84z" />
    <glyph glyph-name="Ydieresis" unicode="&#x178;" 
d="M509 725h111l-250 -453v-272h-95v272l-250 453h111l187 -355zM254 868v-99h-91v99h91zM483 868v-99h-91v99h91z" />
    <glyph glyph-name="Ygrave" unicode="&#x1ef2;" 
d="M509 725h111l-250 -453v-272h-95v272l-250 453h111l187 -355zM132 874h129l109 -113h-90z" />
    <glyph glyph-name="uni0232" unicode="&#x232;" 
d="M509 725h111l-250 -453v-272h-95v272l-250 453h111l187 -355zM173 779v76h300v-76h-300z" />
    <glyph glyph-name="Zacute" unicode="&#x179;" 
d="M557 635l-372 -545h376v-90h-485v90l373 545h-343v90h451v-90zM349 761h-90l109 113h129z" />
    <glyph glyph-name="Zcaron" unicode="&#x17d;" 
d="M557 635l-372 -545h376v-90h-485v90l373 545h-343v90h451v-90zM150 874h106l69 -56l69 56h106l-134 -113h-84z" />
    <glyph glyph-name="Zdotaccent" unicode="&#x17b;" 
d="M557 635l-372 -545h376v-90h-485v90l373 545h-343v90h451v-90zM368 869v-99h-91v99h91z" />
    <glyph glyph-name="abreve" unicode="&#x103;" 
d="M269 -13q-36 0 -68 10.5t-56 30t-37.5 48t-13.5 64.5q0 48 24.5 80.5t71 54t112 34.5t148.5 22v23q0 35 -9 58t-25 37t-38.5 20t-48.5 6q-63 0 -93 -28.5t-35 -78.5h-94q3 43 22.5 77t50 57t69.5 35t81 12q112 0 162.5 -51.5t48.5 -163.5l-1 -131q-1 -68 2 -122t5 -81
h-88l-1 79q-25 -42 -69.5 -67t-119.5 -25zM457 258q-62 -6 -110.5 -14t-83 -21t-52.5 -32.5t-18 -48.5q0 -38 26.5 -59.5t75.5 -21.5q31 0 60 8.5t51.5 29t36.5 55.5t14 89v15zM485 725q-3 -27 -12 -51t-27.5 -42t-47.5 -28.5t-72 -10.5q-42 0 -71 10.5t-48 28.5t-28.5 42
t-11.5 51h71q3 -32 24 -52t65 -20t64 20t23 52h71v0z" />
    <glyph glyph-name="amacron" unicode="&#x101;" 
d="M269 -13q-36 0 -68 10.5t-56 30t-37.5 48t-13.5 64.5q0 48 24.5 80.5t71 54t112 34.5t148.5 22v23q0 35 -9 58t-25 37t-38.5 20t-48.5 6q-63 0 -93 -28.5t-35 -78.5h-94q3 43 22.5 77t50 57t69.5 35t81 12q112 0 162.5 -51.5t48.5 -163.5l-1 -131q-1 -68 2 -122t5 -81
h-88l-1 79q-25 -42 -69.5 -67t-119.5 -25zM457 258q-62 -6 -110.5 -14t-83 -21t-52.5 -32.5t-18 -48.5q0 -38 26.5 -59.5t75.5 -21.5q31 0 60 8.5t51.5 29t36.5 55.5t14 89v15zM177 623v76h300v-76h-300z" />
    <glyph glyph-name="aogonek" unicode="&#x105;" 
d="M269 -13q-36 0 -68 10.5t-56 30t-37.5 48t-13.5 64.5q0 48 24.5 80.5t71 54t112 34.5t148.5 22v23q0 35 -9 58t-25 37t-38.5 20t-48.5 6q-63 0 -93 -28.5t-35 -78.5h-94q3 43 22.5 77t50 57t69.5 35t81 12q112 0 162.5 -51.5t48.5 -163.5l-1 -131q-1 -68 2 -122t5 -81h-9
q-38 -19 -63 -39t-25 -43t20 -31.5t46 -8.5q29 0 49 9v-61q-13 -5 -30.5 -8.5t-38.5 -3.5q-22 0 -45 5t-41.5 15.5t-30.5 28t-12 42.5q0 30 25 53.5t66 41.5h1l-1 79q-25 -42 -69.5 -67t-119.5 -25zM457 258q-62 -6 -110.5 -14t-83 -21t-52.5 -32.5t-18 -48.5
q0 -38 26.5 -59.5t75.5 -21.5q31 0 60 8.5t51.5 29t36.5 55.5t14 89v15z" />
    <glyph glyph-name="cacute" unicode="&#x107;" 
d="M333 547q47 0 85.5 -15.5t66.5 -42t44.5 -60.5t19.5 -70h-93q-9 50 -43 81t-84 31q-30 0 -56.5 -13t-46.5 -38.5t-31.5 -63.5t-11.5 -89t11.5 -89.5t31.5 -64t46.5 -38.5t56.5 -13q27 0 49.5 9t39 24.5t27 35.5t15.5 42h95q-6 -40 -25.5 -74t-50.5 -59t-70.5 -39
t-84.5 -14q-56 0 -100 20.5t-75 58t-47 88.5t-16 113q0 60 17 111t49 88.5t77.5 59t103.5 21.5zM353 609h-76l90 116h117z" />
    <glyph glyph-name="ccaron" unicode="&#x10d;" 
d="M333 547q47 0 85.5 -15.5t66.5 -42t44.5 -60.5t19.5 -70h-93q-9 50 -43 81t-84 31q-30 0 -56.5 -13t-46.5 -38.5t-31.5 -63.5t-11.5 -89t11.5 -89.5t31.5 -64t46.5 -38.5t56.5 -13q27 0 49.5 9t39 24.5t27 35.5t15.5 42h95q-6 -40 -25.5 -74t-50.5 -59t-70.5 -39
t-84.5 -14q-56 0 -100 20.5t-75 58t-47 88.5t-16 113q0 60 17 111t49 88.5t77.5 59t103.5 21.5zM158 725h95l79 -53l79 53h96l-132 -116h-88z" />
    <glyph glyph-name="ccircumflex" unicode="&#x109;" 
d="M333 547q47 0 85.5 -15.5t66.5 -42t44.5 -60.5t19.5 -70h-93q-9 50 -43 81t-84 31q-30 0 -56.5 -13t-46.5 -38.5t-31.5 -63.5t-11.5 -89t11.5 -89.5t31.5 -64t46.5 -38.5t56.5 -13q27 0 49.5 9t39 24.5t27 35.5t15.5 42h95q-6 -40 -25.5 -74t-50.5 -59t-70.5 -39
t-84.5 -14q-56 0 -100 20.5t-75 58t-47 88.5t-16 113q0 60 17 111t49 88.5t77.5 59t103.5 21.5zM507 609h-96l-78 54l-80 -54h-95l132 116h88z" />
    <glyph glyph-name="cdotaccent" unicode="&#x10b;" 
d="M333 547q47 0 85.5 -15.5t66.5 -42t44.5 -60.5t19.5 -70h-93q-9 50 -43 81t-84 31q-30 0 -56.5 -13t-46.5 -38.5t-31.5 -63.5t-11.5 -89t11.5 -89.5t31.5 -64t46.5 -38.5t56.5 -13q27 0 49.5 9t39 24.5t27 35.5t15.5 42h95q-6 -40 -25.5 -74t-50.5 -59t-70.5 -39
t-84.5 -14q-56 0 -100 20.5t-75 58t-47 88.5t-16 113q0 60 17 111t49 88.5t77.5 59t103.5 21.5zM378 710v-99h-91v99h91z" />
    <glyph glyph-name="dcaron" unicode="&#x10f;" 
d="M626 555h-58l30 170h98zM444 725h92v-725h-91l-1 76q-23 -38 -60.5 -63.5t-98.5 -25.5q-47 0 -86.5 18.5t-68.5 54.5t-45.5 88t-16.5 119q0 66 16.5 118t45.5 88t68.5 55t86.5 19q61 0 98.5 -25.5t60.5 -64.5v268zM448 267q0 53 -11.5 91.5t-31.5 63t-46 36.5t-55 12
q-69 0 -104 -53t-35 -150t35 -150.5t104 -53.5q29 0 55 12t46 37t31.5 63.5t11.5 91.5z" />
    <glyph glyph-name="dcroat" unicode="&#x111;" 
d="M444 725h92v-82h81v-75h-81v-568h-91l-1 76q-23 -38 -60.5 -63.5t-98.5 -25.5q-47 0 -86.5 18.5t-68.5 54.5t-45.5 88t-16.5 119q0 66 16.5 118t45.5 88t68.5 55t86.5 19q61 0 98.5 -25.5t60.5 -64.5v111h-127v75h127v82zM448 267q0 53 -11.5 91.5t-31.5 63t-46 36.5
t-55 12q-69 0 -104 -53t-35 -150t35 -150.5t104 -53.5q29 0 55 12t46 37t31.5 63.5t11.5 91.5z" />
    <glyph glyph-name="ebreve" unicode="&#x115;" 
d="M326 -13q-61 0 -107 21.5t-76.5 59t-45.5 88.5t-15 111q0 65 18 117t50.5 88.5t77.5 56t98 19.5q59 0 105 -21t76.5 -60.5t46 -96.5t12.5 -129h-387q0 -41 10.5 -74t30 -56t46 -36t58.5 -13q60 0 92.5 26.5t46.5 72.5h95q-8 -38 -27.5 -70t-49.5 -55t-69 -36t-86 -13z
M326 472q-66 0 -104.5 -38.5t-41.5 -116.5h288q0 33 -8.5 61.5t-26.5 49t-45 32.5t-62 12zM485 725q-3 -27 -12 -51t-27.5 -42t-47.5 -28.5t-72 -10.5q-42 0 -71 10.5t-48 28.5t-28.5 42t-11.5 51h71q3 -32 24 -52t65 -20t64 20t23 52h71v0z" />
    <glyph glyph-name="ecaron" unicode="&#x11b;" 
d="M326 -13q-61 0 -107 21.5t-76.5 59t-45.5 88.5t-15 111q0 65 18 117t50.5 88.5t77.5 56t98 19.5q59 0 105 -21t76.5 -60.5t46 -96.5t12.5 -129h-387q0 -41 10.5 -74t30 -56t46 -36t58.5 -13q60 0 92.5 26.5t46.5 72.5h95q-8 -38 -27.5 -70t-49.5 -55t-69 -36t-86 -13z
M326 472q-66 0 -104.5 -38.5t-41.5 -116.5h288q0 33 -8.5 61.5t-26.5 49t-45 32.5t-62 12zM151 725h95l79 -53l79 53h96l-132 -116h-88z" />
    <glyph glyph-name="emacron" unicode="&#x113;" 
d="M326 -13q-61 0 -107 21.5t-76.5 59t-45.5 88.5t-15 111q0 65 18 117t50.5 88.5t77.5 56t98 19.5q59 0 105 -21t76.5 -60.5t46 -96.5t12.5 -129h-387q0 -41 10.5 -74t30 -56t46 -36t58.5 -13q60 0 92.5 26.5t46.5 72.5h95q-8 -38 -27.5 -70t-49.5 -55t-69 -36t-86 -13z
M326 472q-66 0 -104.5 -38.5t-41.5 -116.5h288q0 33 -8.5 61.5t-26.5 49t-45 32.5t-62 12zM176 623v76h300v-76h-300z" />
    <glyph glyph-name="eogonek" unicode="&#x119;" 
d="M326 -13q-61 0 -107 21.5t-76.5 59t-45.5 88.5t-15 111q0 65 18 117t50.5 88.5t77.5 56t98 19.5q59 0 105 -21t76.5 -60.5t46 -96.5t12.5 -129h-387q0 -41 10.5 -74t30 -56t46 -36t58.5 -13q60 0 92.5 26.5t46.5 72.5h95q-8 -38 -27.5 -70t-49.5 -55t-69 -36t-86 -13z
M326 472q-66 0 -104.5 -38.5t-41.5 -116.5h288q0 33 -8.5 61.5t-26.5 49t-45 32.5t-62 12zM412 0q-38 -19 -63 -39t-25 -43t20 -31.5t45 -8.5q30 0 50 9v-61q-13 -5 -30.5 -8.5t-38.5 -3.5q-22 0 -45 5t-41.5 15.5t-30.5 28t-12 42.5q0 30 19.5 52.5t60.5 42.5h91z" />
    <glyph glyph-name="edotaccent" unicode="&#x117;" 
d="M326 -13q-61 0 -107 21.5t-76.5 59t-45.5 88.5t-15 111q0 65 18 117t50.5 88.5t77.5 56t98 19.5q59 0 105 -21t76.5 -60.5t46 -96.5t12.5 -129h-387q0 -41 10.5 -74t30 -56t46 -36t58.5 -13q60 0 92.5 26.5t46.5 72.5h95q-8 -38 -27.5 -70t-49.5 -55t-69 -36t-86 -13z
M326 472q-66 0 -104.5 -38.5t-41.5 -116.5h288q0 33 -8.5 61.5t-26.5 49t-45 32.5t-62 12zM371 710v-99h-91v99h91z" />
    <glyph glyph-name="gbreve" unicode="&#x11f;" 
d="M446 538h92v-471q0 -41 -2.5 -71t-8 -52t-13.5 -37.5t-19 -28.5q-29 -34 -80 -52.5t-108 -18.5q-88 0 -146 41t-70 121h97q5 -18 13 -33.5t22 -26t34.5 -16.5t50.5 -6q35 0 64 10t46 30q7 8 12 17t8.5 22.5t5.5 33t2 46.5v52q-23 -39 -60.5 -64t-98.5 -25q-47 0 -86.5 17
t-68.5 50.5t-45.5 84t-16.5 117.5q0 66 16.5 116.5t45.5 84.5t68.5 51t86.5 17q61 0 98.5 -25.5t60.5 -64.5v81zM450 278q0 53 -11.5 90t-31.5 59.5t-46 32.5t-55 10q-139 0 -139 -192q0 -193 139 -193q29 0 55 10.5t46 33.5t31.5 59.5t11.5 89.5zM485 725q-3 -27 -12 -51
t-27.5 -42t-47.5 -28.5t-72 -10.5q-42 0 -71 10.5t-48 28.5t-28.5 42t-11.5 51h71q3 -32 24 -52t65 -20t64 20t23 52h71v0z" />
    <glyph glyph-name="gcircumflex" unicode="&#x11d;" 
d="M446 538h92v-471q0 -41 -2.5 -71t-8 -52t-13.5 -37.5t-19 -28.5q-29 -34 -80 -52.5t-108 -18.5q-88 0 -146 41t-70 121h97q5 -18 13 -33.5t22 -26t34.5 -16.5t50.5 -6q35 0 64 10t46 30q7 8 12 17t8.5 22.5t5.5 33t2 46.5v52q-23 -39 -60.5 -64t-98.5 -25q-47 0 -86.5 17
t-68.5 50.5t-45.5 84t-16.5 117.5q0 66 16.5 116.5t45.5 84.5t68.5 51t86.5 17q61 0 98.5 -25.5t60.5 -64.5v81zM450 278q0 53 -11.5 90t-31.5 59.5t-46 32.5t-55 10q-139 0 -139 -192q0 -193 139 -193q29 0 55 10.5t46 33.5t31.5 59.5t11.5 89.5zM500 609h-96l-78 54
l-80 -54h-95l132 116h88z" />
    <glyph glyph-name="gcommaaccent" unicode="&#x123;" 
d="M350 597h-95v96l44 89h54l-39 -96h36v-89zM446 538h92v-471q0 -41 -2.5 -71t-8 -52t-13.5 -37.5t-19 -28.5q-29 -34 -80 -52.5t-108 -18.5q-88 0 -146 41t-70 121h97q5 -18 13 -33.5t22 -26t34.5 -16.5t50.5 -6q35 0 64 10t46 30q7 8 12 17t8.5 22.5t5.5 33t2 46.5v52
q-23 -39 -60.5 -64t-98.5 -25q-47 0 -86.5 17t-68.5 50.5t-45.5 84t-16.5 117.5q0 66 16.5 116.5t45.5 84.5t68.5 51t86.5 17q61 0 98.5 -25.5t60.5 -64.5v81zM450 278q0 53 -11.5 90t-31.5 59.5t-46 32.5t-55 10q-139 0 -139 -192q0 -193 139 -193q29 0 55 10.5t46 33.5
t31.5 59.5t11.5 89.5z" />
    <glyph glyph-name="gdotaccent" unicode="&#x121;" 
d="M446 538h92v-471q0 -41 -2.5 -71t-8 -52t-13.5 -37.5t-19 -28.5q-29 -34 -80 -52.5t-108 -18.5q-88 0 -146 41t-70 121h97q5 -18 13 -33.5t22 -26t34.5 -16.5t50.5 -6q35 0 64 10t46 30q7 8 12 17t8.5 22.5t5.5 33t2 46.5v52q-23 -39 -60.5 -64t-98.5 -25q-47 0 -86.5 17
t-68.5 50.5t-45.5 84t-16.5 117.5q0 66 16.5 116.5t45.5 84.5t68.5 51t86.5 17q61 0 98.5 -25.5t60.5 -64.5v81zM450 278q0 53 -11.5 90t-31.5 59.5t-46 32.5t-55 10q-139 0 -139 -192q0 -193 139 -193q29 0 55 10.5t46 33.5t31.5 59.5t11.5 89.5zM371 710v-99h-91v99h91z
" />
    <glyph glyph-name="hbar" unicode="&#x127;" 
d="M365 547q49 0 81 -15.5t51.5 -42.5t27.5 -64.5t8 -82.5v-342h-92v310q0 33 -2.5 62t-13 50.5t-32 34.5t-58.5 13q-63 0 -96 -45.5t-33 -132.5v-292h-92v568h-80v75h80v82h92v-82h128v-75h-128v-106q21 35 58.5 60t100.5 25z" />
    <glyph glyph-name="hcircumflex" unicode="&#x125;" 
d="M365 547q49 0 81 -15.5t51.5 -42.5t27.5 -64.5t8 -82.5v-342h-92v310q0 33 -2.5 62t-13 50.5t-32 34.5t-58.5 13q-63 0 -96 -45.5t-33 -132.5v-292h-92v725h92v-263q21 35 58.5 60t100.5 25zM338 771h-106l-69 56l-69 -56h-106l134 113h84z" />
    <glyph glyph-name="dotlessi" unicode="&#x131;" 
d="M378 538v-459h153v-79h-397v79h152v380h-152v79h244z" />
    <glyph glyph-name="ibreve" unicode="&#x12d;" 
d="M378 538v-459h153v-79h-397v79h152v380h-152v79h244zM490 725q-3 -27 -12 -51t-27.5 -42t-47.5 -28.5t-72 -10.5q-42 0 -71 10.5t-48 28.5t-28.5 42t-11.5 51h71q3 -32 24 -52t65 -20t64 20t23 52h71v0z" />
    <glyph glyph-name="imacron" unicode="&#x12b;" 
d="M378 538v-459h153v-79h-397v79h152v380h-152v79h244zM181 623v76h300v-76h-300z" />
    <glyph glyph-name="iogonek" unicode="&#x12f;" 
d="M381 0q-38 -19 -63 -39t-25 -43t20 -31.5t45 -8.5q30 0 50 9v-61q-13 -5 -30.5 -8.5t-38.5 -3.5q-22 0 -45 5t-41.5 15.5t-30.5 28t-12 42.5q0 30 19.5 52.5t60.5 42.5h91zM378 538v-459h153v-79h-397v79h152v380h-152v79h244zM378 725v-109h-92v109h92z" />
    <glyph glyph-name="itilde" unicode="&#x129;" 
d="M378 538v-459h153v-79h-397v79h152v380h-152v79h244zM396 673q20 0 32.5 11t15.5 34h71q-10 -62 -43.5 -87.5t-73.5 -25.5q-23 0 -41 7.5t-33.5 16t-30 16t-30.5 7.5q-40 0 -45 -44h-71q9 58 40.5 85t74.5 27q23 0 40.5 -7.5t32.5 -16t29.5 -16t31.5 -7.5z" />
    <glyph glyph-name="uni1ECB" unicode="&#x1ecb;" 
d="M378 725v-109h-92v109h92zM378 538v-459h153v-79h-397v79h152v380h-152v79h244zM377 -75v-99h-91v99h91z" />
    <glyph glyph-name="dotlessj" unicode="&#x237;" 
d="M410 538v-565q0 -42 -6 -70.5t-21 -45.5t-39.5 -24.5t-61.5 -7.5h-144v79h125q17 0 27.5 2.5t16.5 10t8.5 20.5t2.5 34v488h-135v79h227z" />
    <glyph glyph-name="jcircumflex" unicode="&#x135;" 
d="M410 538v-565q0 -42 -6 -70.5t-21 -45.5t-39.5 -24.5t-61.5 -7.5h-144v79h125q17 0 27.5 2.5t16.5 10t8.5 20.5t2.5 34v488h-135v79h227zM536 609h-96l-78 54l-80 -54h-95l132 116h88z" />
    <glyph glyph-name="kcommaaccent" unicode="&#x137;" 
d="M213 725v-432l238 245h118l-211 -209l232 -329h-105l-189 268l-83 -82v-186h-92v725h92zM285 -36h95v-95l-44 -90h-54l39 96h-36v89z" />
    <glyph glyph-name="lacute" unicode="&#x13a;" 
d="M372 725v-646h153v-79h-397v79h152v568h-152v78h244zM372 761h-90l109 113h129z" />
    <glyph glyph-name="lcaron" unicode="&#x13e;" 
d="M485 555h-58l30 170h98zM372 725v-646h153v-79h-397v79h152v568h-152v78h244z" />
    <glyph glyph-name="lcommaaccent" unicode="&#x13c;" 
d="M372 725v-646h153v-79h-397v79h152v568h-152v78h244zM277 -36h95v-95l-44 -90h-54l39 96h-36v89z" />
    <glyph glyph-name="ldot" unicode="&#x140;" 
d="M634 438v-99h-91v99h91zM372 725v-646h153v-79h-397v79h152v568h-152v78h244z" />
    <glyph glyph-name="lslash" unicode="&#x142;" 
d="M372 725v-279l145 59v-77l-145 -59v-290h153v-79h-397v79h152v253l-162 -65v76l162 66v238h-152v78h244z" />
    <glyph glyph-name="nacute" unicode="&#x144;" 
d="M206 462q10 17 24 32.5t33 27t44 18.5t57 7q49 0 81.5 -15.5t52 -42.5t27.5 -64.5t8 -82.5v-342h-92v310q0 33 -2.5 61.5t-13.5 50.5t-32.5 34.5t-58.5 12.5q-63 0 -95.5 -45t-32.5 -132v-292h-92v538h92v-76zM376 609h-76l90 116h117z" />
    <glyph glyph-name="ncaron" unicode="&#x148;" 
d="M206 462q10 17 24 32.5t33 27t44 18.5t57 7q49 0 81.5 -15.5t52 -42.5t27.5 -64.5t8 -82.5v-342h-92v310q0 33 -2.5 61.5t-13.5 50.5t-32.5 34.5t-58.5 12.5q-63 0 -95.5 -45t-32.5 -132v-292h-92v538h92v-76zM148 725h95l79 -53l79 53h96l-132 -116h-88z" />
    <glyph glyph-name="ncommaaccent" unicode="&#x146;" 
d="M206 462q10 17 24 32.5t33 27t44 18.5t57 7q49 0 81.5 -15.5t52 -42.5t27.5 -64.5t8 -82.5v-342h-92v310q0 33 -2.5 61.5t-13.5 50.5t-32.5 34.5t-58.5 12.5q-63 0 -95.5 -45t-32.5 -132v-292h-92v538h92v-76zM277 -36h95v-95l-44 -90h-54l39 96h-36v89z" />
    <glyph glyph-name="oe" unicode="&#x153;" 
d="M195 547q47 0 77.5 -20.5t49.5 -55.5q21 36 52.5 55.5t73.5 19.5q46 0 79.5 -22t55.5 -63t31.5 -98.5t7.5 -127.5h-265q-1 -78 22 -126.5t67 -48.5q39 0 58 24t24 72h86q-7 -78 -51 -123.5t-115 -45.5q-47 0 -78 18.5t-50 51.5q-19 -33 -49.5 -51.5t-75.5 -18.5
q-48 0 -81.5 22t-54 59.5t-29.5 88t-9 108.5t9 109t29.5 89.5t54 61t81.5 22.5zM195 473q-48 0 -67 -55.5t-19 -152.5q0 -96 19.5 -150.5t66.5 -54.5t64.5 52t17.5 149t-18 154.5t-64 57.5zM534 310q0 33 -4 62.5t-14 52.5t-27 36.5t-41 13.5q-46 0 -67.5 -45t-23.5 -120
h177z" />
    <glyph glyph-name="obreve" unicode="&#x14f;" 
d="M171 267q0 -54 12 -92t33 -63t48.5 -36.5t58.5 -11.5t58.5 11.5t48.5 36.5t33 63t12 92t-12 92t-33 63t-48.5 36.5t-58.5 11.5t-58.5 -11.5t-48.5 -36.5t-33 -63t-12 -92zM74 267q0 73 21.5 126t57 87t80 50.5t90.5 16.5t90.5 -16.5t80 -50.5t57 -87t21.5 -126
t-21.5 -126t-57 -87t-80 -50.5t-90.5 -16.5t-90.5 16.5t-80 50.5t-57 87t-21.5 126zM482 725q-3 -27 -12 -51t-27.5 -42t-47.5 -28.5t-72 -10.5q-42 0 -71 10.5t-48 28.5t-28.5 42t-11.5 51h71q3 -32 24 -52t65 -20t64 20t23 52h71v0z" />
    <glyph glyph-name="ohungarumlaut" unicode="&#x151;" 
d="M171 267q0 -54 12 -92t33 -63t48.5 -36.5t58.5 -11.5t58.5 11.5t48.5 36.5t33 63t12 92t-12 92t-33 63t-48.5 36.5t-58.5 11.5t-58.5 -11.5t-48.5 -36.5t-33 -63t-12 -92zM74 267q0 73 21.5 126t57 87t80 50.5t90.5 16.5t90.5 -16.5t80 -50.5t57 -87t21.5 -126
t-21.5 -126t-57 -87t-80 -50.5t-90.5 -16.5t-90.5 16.5t-80 50.5t-57 87t-21.5 126zM263 609h-76l90 116h117zM422 609h-77l91 116h116z" />
    <glyph glyph-name="omacron" unicode="&#x14d;" 
d="M171 267q0 -54 12 -92t33 -63t48.5 -36.5t58.5 -11.5t58.5 11.5t48.5 36.5t33 63t12 92t-12 92t-33 63t-48.5 36.5t-58.5 11.5t-58.5 -11.5t-48.5 -36.5t-33 -63t-12 -92zM74 267q0 73 21.5 126t57 87t80 50.5t90.5 16.5t90.5 -16.5t80 -50.5t57 -87t21.5 -126
t-21.5 -126t-57 -87t-80 -50.5t-90.5 -16.5t-90.5 16.5t-80 50.5t-57 87t-21.5 126zM173 623v76h300v-76h-300z" />
    <glyph glyph-name="uni1ECD" unicode="&#x1ecd;" 
d="M171 267q0 -54 12 -92t33 -63t48.5 -36.5t58.5 -11.5t58.5 11.5t48.5 36.5t33 63t12 92t-12 92t-33 63t-48.5 36.5t-58.5 11.5t-58.5 -11.5t-48.5 -36.5t-33 -63t-12 -92zM74 267q0 73 21.5 126t57 87t80 50.5t90.5 16.5t90.5 -16.5t80 -50.5t57 -87t21.5 -126
t-21.5 -126t-57 -87t-80 -50.5t-90.5 -16.5t-90.5 16.5t-80 50.5t-57 87t-21.5 126zM368 -75v-99h-91v99h91z" />
    <glyph glyph-name="racute" unicode="&#x155;" 
d="M329 538v-96q20 45 57 70.5t87 25.5h92v-84h-91q-77 0 -110 -49t-33 -137v-189h184v-79h-428v79h152v380h-153v79h243zM385 609h-76l90 116h117z" />
    <glyph glyph-name="rcaron" unicode="&#x159;" 
d="M329 538v-96q20 45 57 70.5t87 25.5h92v-84h-91q-77 0 -110 -49t-33 -137v-189h184v-79h-428v79h152v380h-153v79h243zM172 725h95l79 -53l79 53h96l-132 -116h-88z" />
    <glyph glyph-name="rcommaaccent" unicode="&#x157;" 
d="M329 538v-96q20 45 57 70.5t87 25.5h92v-84h-91q-77 0 -110 -49t-33 -137v-189h184v-79h-428v79h152v380h-153v79h243zM236 -36h95v-95l-44 -90h-54l39 96h-36v89z" />
    <glyph glyph-name="sacute" unicode="&#x15b;" 
d="M434 391q-9 45 -41.5 62.5t-78.5 17.5q-20 0 -39.5 -4t-34.5 -12.5t-24.5 -21.5t-9.5 -31q0 -32 20.5 -48t60.5 -24l60 -12q35 -7 69.5 -17.5t62 -29t44.5 -46.5t17 -68q0 -43 -17 -75t-46.5 -53t-68.5 -31.5t-83 -10.5q-53 0 -92.5 15t-66.5 39.5t-42 56t-19 63.5h97
q9 -47 38.5 -72.5t86.5 -25.5q21 0 42.5 4t39 14t28 25.5t10.5 39.5q0 38 -31 58t-82 29l-67 13q-32 6 -59.5 17.5t-48 30t-32.5 44t-12 60.5q0 39 19 67t48.5 46.5t65.5 27t70 8.5q86 0 141.5 -42t70.5 -114h-96zM340 609h-76l90 116h117z" />
    <glyph glyph-name="scaron" unicode="&#x161;" 
d="M434 391q-9 45 -41.5 62.5t-78.5 17.5q-20 0 -39.5 -4t-34.5 -12.5t-24.5 -21.5t-9.5 -31q0 -32 20.5 -48t60.5 -24l60 -12q35 -7 69.5 -17.5t62 -29t44.5 -46.5t17 -68q0 -43 -17 -75t-46.5 -53t-68.5 -31.5t-83 -10.5q-53 0 -92.5 15t-66.5 39.5t-42 56t-19 63.5h97
q9 -47 38.5 -72.5t86.5 -25.5q21 0 42.5 4t39 14t28 25.5t10.5 39.5q0 38 -31 58t-82 29l-67 13q-32 6 -59.5 17.5t-48 30t-32.5 44t-12 60.5q0 39 19 67t48.5 46.5t65.5 27t70 8.5q86 0 141.5 -42t70.5 -114h-96zM145 725h95l79 -53l79 53h96l-132 -116h-88z" />
    <glyph glyph-name="scedilla" unicode="&#x15f;" 
d="M434 391q-9 45 -41.5 62.5t-78.5 17.5q-20 0 -39.5 -4t-34.5 -12.5t-24.5 -21.5t-9.5 -31q0 -32 20.5 -48t60.5 -24l60 -12q35 -7 69.5 -17.5t62 -29t44.5 -46.5t17 -68q0 -43 -17 -75t-46.5 -53t-68.5 -31.5t-83 -10.5q-53 0 -92.5 15t-66.5 39.5t-42 56t-19 63.5h97
q9 -47 38.5 -72.5t86.5 -25.5q21 0 42.5 4t39 14t28 25.5t10.5 39.5q0 38 -31 58t-82 29l-67 13q-32 6 -59.5 17.5t-48 30t-32.5 44t-12 60.5q0 39 19 67t48.5 46.5t65.5 27t70 8.5q86 0 141.5 -42t70.5 -114h-96zM255 -136q13 -6 28.5 -10t29.5 -4q22 0 41.5 7t19.5 25
q0 15 -13 22.5t-31 7.5q-8 0 -19 -2t-19 -7l-30 17l51 83h53l-32 -51q15 3 30 3q36 0 56 -18.5t20 -49.5q0 -20 -9.5 -35t-25 -25.5t-35 -16t-38.5 -5.5q-20 0 -44 3.5t-49 15.5z" />
    <glyph glyph-name="scircumflex" unicode="&#x15d;" 
d="M434 391q-9 45 -41.5 62.5t-78.5 17.5q-20 0 -39.5 -4t-34.5 -12.5t-24.5 -21.5t-9.5 -31q0 -32 20.5 -48t60.5 -24l60 -12q35 -7 69.5 -17.5t62 -29t44.5 -46.5t17 -68q0 -43 -17 -75t-46.5 -53t-68.5 -31.5t-83 -10.5q-53 0 -92.5 15t-66.5 39.5t-42 56t-19 63.5h97
q9 -47 38.5 -72.5t86.5 -25.5q21 0 42.5 4t39 14t28 25.5t10.5 39.5q0 38 -31 58t-82 29l-67 13q-32 6 -59.5 17.5t-48 30t-32.5 44t-12 60.5q0 39 19 67t48.5 46.5t65.5 27t70 8.5q86 0 141.5 -42t70.5 -114h-96zM494 609h-96l-78 54l-80 -54h-95l132 116h88z" />
    <glyph glyph-name="scommaaccent" unicode="&#x219;" 
d="M434 391q-9 45 -41.5 62.5t-78.5 17.5q-20 0 -39.5 -4t-34.5 -12.5t-24.5 -21.5t-9.5 -31q0 -32 20.5 -48t60.5 -24l60 -12q35 -7 69.5 -17.5t62 -29t44.5 -46.5t17 -68q0 -43 -17 -75t-46.5 -53t-68.5 -31.5t-83 -10.5q-53 0 -92.5 15t-66.5 39.5t-42 56t-19 63.5h97
q9 -47 38.5 -72.5t86.5 -25.5q21 0 42.5 4t39 14t28 25.5t10.5 39.5q0 38 -31 58t-82 29l-67 13q-32 6 -59.5 17.5t-48 30t-32.5 44t-12 60.5q0 39 19 67t48.5 46.5t65.5 27t70 8.5q86 0 141.5 -42t70.5 -114h-96zM288 -36h95v-95l-44 -90h-54l39 96h-36v89z" />
    <glyph glyph-name="tcaron" unicode="&#x165;" 
d="M520 555h-58l30 170h98zM197 673h92v-135h220v-79h-220v-311q0 -21 1.5 -34t6.5 -21t16 -11t30 -3h166v-79h-186q-37 0 -61 5.5t-38.5 20t-20.5 41t-6 68.5v324h-153v79h153v135z" />
    <glyph glyph-name="uni0163" unicode="&#x163;" 
d="M197 673h92v-135h220v-79h-220v-311q0 -21 1.5 -34t6.5 -21t16 -11t30 -3h166v-79h-186q-37 0 -61 5.5t-38.5 20t-20.5 41t-6 68.5v324h-153v79h153v135zM205 -36h95v-95l-44 -90h-54l39 96h-36v89z" />
    <glyph glyph-name="tcommaaccent" unicode="&#x21b;" 
d="M197 673h92v-135h220v-79h-220v-311q0 -21 1.5 -34t6.5 -21t16 -11t30 -3h166v-79h-186q-37 0 -61 5.5t-38.5 20t-20.5 41t-6 68.5v324h-153v79h153v135zM205 -36h95v-95l-44 -90h-54l39 96h-36v89z" />
    <glyph glyph-name="ubreve" unicode="&#x16d;" 
d="M439 69q-22 -35 -58 -58.5t-100 -23.5q-49 0 -81 15.5t-51 42.5t-27 64.5t-8 82.5v346h92v-314q0 -33 2.5 -61.5t12.5 -50t31 -34t59 -12.5q63 0 95.5 44.5t32.5 131.5v296h92v-538h-92v69zM482 725q-3 -27 -12 -51t-27.5 -42t-47.5 -28.5t-72 -10.5q-42 0 -71 10.5
t-48 28.5t-28.5 42t-11.5 51h71q3 -32 24 -52t65 -20t64 20t23 52h71v0z" />
    <glyph glyph-name="uhungarumlaut" unicode="&#x171;" 
d="M439 69q-22 -35 -58 -58.5t-100 -23.5q-49 0 -81 15.5t-51 42.5t-27 64.5t-8 82.5v346h92v-314q0 -33 2.5 -61.5t12.5 -50t31 -34t59 -12.5q63 0 95.5 44.5t32.5 131.5v296h92v-538h-92v69zM265 609h-76l90 116h117zM424 609h-77l91 116h116z" />
    <glyph glyph-name="umacron" unicode="&#x16b;" 
d="M439 69q-22 -35 -58 -58.5t-100 -23.5q-49 0 -81 15.5t-51 42.5t-27 64.5t-8 82.5v346h92v-314q0 -33 2.5 -61.5t12.5 -50t31 -34t59 -12.5q63 0 95.5 44.5t32.5 131.5v296h92v-538h-92v69zM177 623v76h300v-76h-300z" />
    <glyph glyph-name="uogonek" unicode="&#x173;" 
d="M439 69q-22 -35 -58 -58.5t-100 -23.5q-49 0 -81 15.5t-51 42.5t-27 64.5t-8 82.5v346h92v-314q0 -33 2.5 -61.5t12.5 -50t31 -34t59 -12.5q63 0 95.5 44.5t32.5 131.5v296h92v-538h-92v69zM530 0q-38 -19 -63 -39t-25 -43t20 -31.5t45 -8.5q30 0 50 9v-61
q-13 -5 -30.5 -8.5t-38.5 -3.5q-22 0 -45 5t-41.5 15.5t-30.5 28t-12 42.5q0 30 19.5 52.5t60.5 42.5h91z" />
    <glyph glyph-name="uring" unicode="&#x16f;" 
d="M439 69q-22 -35 -58 -58.5t-100 -23.5q-49 0 -81 15.5t-51 42.5t-27 64.5t-8 82.5v346h92v-314q0 -33 2.5 -61.5t12.5 -50t31 -34t59 -12.5q63 0 95.5 44.5t32.5 131.5v296h92v-538h-92v69zM322 760q38 0 64.5 -24t26.5 -61q0 -38 -26.5 -61.5t-64.5 -23.5t-64 23.5
t-26 61.5q0 37 26.5 61t63.5 24zM322 718q-17 0 -30 -12.5t-13 -30.5q0 -19 13 -30.5t30 -11.5t30 11.5t13 30.5q0 18 -13 30.5t-30 12.5z" />
    <glyph glyph-name="utilde" unicode="&#x169;" 
d="M439 69q-22 -35 -58 -58.5t-100 -23.5q-49 0 -81 15.5t-51 42.5t-27 64.5t-8 82.5v346h92v-314q0 -33 2.5 -61.5t12.5 -50t31 -34t59 -12.5q63 0 95.5 44.5t32.5 131.5v296h92v-538h-92v69zM388 673q20 0 32.5 11t15.5 34h71q-10 -62 -43.5 -87.5t-73.5 -25.5
q-23 0 -41 7.5t-33.5 16t-30 16t-30.5 7.5q-40 0 -45 -44h-71q9 58 40.5 85t74.5 27q23 0 40.5 -7.5t32.5 -16t29.5 -16t31.5 -7.5z" />
    <glyph glyph-name="uni1EE5" unicode="&#x1ee5;" 
d="M439 69q-22 -35 -58 -58.5t-100 -23.5q-49 0 -81 15.5t-51 42.5t-27 64.5t-8 82.5v346h92v-314q0 -33 2.5 -61.5t12.5 -50t31 -34t59 -12.5q63 0 95.5 44.5t32.5 131.5v296h92v-538h-92v69zM365 -75v-99h-91v99h91z" />
    <glyph glyph-name="wacute" unicode="&#x1e83;" 
d="M365 430l80 -290l55 398h93l-90 -538h-93l-88 325l-88 -325h-93l-90 538h94l54 -398l80 290h86zM362 609h-76l90 116h117z" />
    <glyph glyph-name="wcircumflex" unicode="&#x175;" 
d="M365 430l80 -290l55 398h93l-90 -538h-93l-88 325l-88 -325h-93l-90 538h94l54 -398l80 290h86zM505 609h-96l-78 54l-80 -54h-95l132 116h88z" />
    <glyph glyph-name="wdieresis" unicode="&#x1e85;" 
d="M365 430l80 -290l55 398h93l-90 -538h-93l-88 325l-88 -325h-93l-90 538h94l54 -398l80 290h86zM163 708h91v-99h-91v99zM483 708v-99h-91v99h91z" />
    <glyph glyph-name="wgrave" unicode="&#x1e81;" 
d="M365 430l80 -290l55 398h93l-90 -538h-93l-88 325l-88 -325h-93l-90 538h94l54 -398l80 290h86zM159 725h116l91 -116h-77z" />
    <glyph glyph-name="ycircumflex" unicode="&#x177;" 
d="M77 -175v79h97q21 0 35.5 2.5t26 11t20.5 25t20 45.5l4 12l-201 538h101l146 -415l143 415h95l-199 -561q-14 -40 -28.5 -68.5t-34 -47t-48 -27.5t-71.5 -9h-106zM497 609h-96l-78 54l-80 -54h-95l132 116h88z" />
    <glyph glyph-name="ygrave" unicode="&#x1ef3;" 
d="M77 -175v79h97q21 0 35.5 2.5t26 11t20.5 25t20 45.5l4 12l-201 538h101l146 -415l143 415h95l-199 -561q-14 -40 -28.5 -68.5t-34 -47t-48 -27.5t-71.5 -9h-106zM161 725h116l91 -116h-77z" />
    <glyph glyph-name="uni0233" unicode="&#x233;" 
d="M77 -175v79h97q21 0 35.5 2.5t26 11t20.5 25t20 45.5l4 12l-201 538h101l146 -415l143 415h95l-199 -561q-14 -40 -28.5 -68.5t-34 -47t-48 -27.5t-71.5 -9h-106zM173 623v76h300v-76h-300z" />
    <glyph glyph-name="zacute" unicode="&#x17a;" 
d="M104 79l327 380h-308v79h420v-79l-327 -380h332v-79h-444v79zM355 609h-76l90 116h117z" />
    <glyph glyph-name="zcaron" unicode="&#x17e;" 
d="M104 79l327 380h-308v79h420v-79l-327 -380h332v-79h-444v79zM172 725h95l79 -53l79 53h96l-132 -116h-88z" />
    <glyph glyph-name="zdotaccent" unicode="&#x17c;" 
d="M104 79l327 380h-308v79h420v-79l-327 -380h332v-79h-444v79zM390 710v-99h-91v99h91z" />
    <glyph glyph-name="ellipsis" unicode="&#x2026;" 
d="M51 0v115h115v-115h-115zM480 0v115h115v-115h-115zM265 0v115h115v-115h-115z" />
    <glyph glyph-name="endash" unicode="&#x2013;" 
d="M105 231v86h436v-86h-436z" />
    <glyph glyph-name="emdash" unicode="&#x2014;" 
d="M47 231v86h552v-86h-552z" />
    <glyph glyph-name="guilsinglleft" unicode="&#x2039;" 
d="M183 273l159 228h98l-150 -228l150 -229h-98z" />
    <glyph glyph-name="guilsinglright" unicode="&#x203a;" 
d="M304 44h-98l151 229l-151 228h98l159 -228z" />
    <glyph glyph-name="quoteleft" unicode="&#x2018;" 
d="M381 472h-115v122l61 131h58l-52 -138h48v-115z" />
    <glyph glyph-name="quoteright" unicode="&#x2019;" 
d="M265 725h115v-123l-61 -131h-58l53 139h-49v115z" />
    <glyph glyph-name="quotedblleft" unicode="&#x201c;" 
d="M298 472h-115v122l61 131h58l-52 -138h48v-115zM465 472h-115v122l61 131h58l-52 -138h48v-115z" />
    <glyph glyph-name="quotedblright" unicode="&#x201d;" 
d="M349 725h115v-123l-61 -131h-58l53 139h-49v115zM182 725h115v-123l-61 -131h-58l53 139h-49v115z" />
    <glyph glyph-name="quotesinglbase" unicode="&#x201a;" 
d="M265 115h115v-123l-61 -131h-58l53 139h-49v115z" />
    <glyph glyph-name="quotedblbase" unicode="&#x201e;" 
d="M182 115h115v-123l-61 -131h-58l53 139h-49v115zM349 115h115v-123l-61 -131h-58l53 139h-49v115z" />
    <glyph glyph-name="bullet" unicode="&#x2022;" 
d="M143 279q0 37 14 69t38 56t56 38t68 14q39 0 73 -14t58.5 -38t38.5 -56t14 -69q0 -39 -14 -72.5t-38.5 -58t-58.5 -38.5t-73 -14q-36 0 -68 14t-56 38.5t-38 58t-14 72.5z" />
    <glyph glyph-name="minus" unicode="&#x2212;" 
d="M595 312v-86h-544v86h544z" />
    <glyph glyph-name="Euro" unicode="&#x20ac;" 
d="M590 228q-19 -117 -82.5 -179t-162.5 -62q-56 0 -98 20t-71.5 56t-48 86.5t-25.5 112.5h-94l43 64h45v38v24.5t1 24.5h-89l43 65h53q18 120 79.5 190t168.5 70q47 0 86.5 -17t69.5 -48.5t50 -76t29 -99.5h-96q-5 31 -14.5 59t-26.5 49t-42 33t-59 12q-61 0 -97 -43.5
t-50 -128.5h252l-43 -65h-216q-1 -12 -1 -24v-25v-19.5t1 -18.5h178l-43 -64h-130q11 -89 48 -138t103 -49q34 0 59 11.5t42 32t27.5 48.5t15.5 61h95z" />
    <glyph glyph-name="fi" unicode="&#xfb01;" 
d="M132 577q0 42 6 70.5t21.5 45.5t43.5 24.5t72 7.5h124v-76h-122q-34 0 -44 -14t-10 -56v-41h336v-538h-92v463h-244v-463h-91v463h-100v75h100v39zM559 725v-109h-92v109h92z" />
    <glyph glyph-name="fl" unicode="&#xfb02;" 
d="M132 577q0 42 6 70.5t21.5 45.5t43.5 24.5t72 7.5h284v-725h-92v649h-190q-34 0 -44 -14t-10 -56v-41h152v-75h-152v-463h-91v463h-100v75h100v39z" />
    <glyph glyph-name="breve" unicode="&#x2d8;" 
d="M482 725q-3 -27 -12 -51t-27.5 -42t-47.5 -28.5t-72 -10.5q-42 0 -71 10.5t-48 28.5t-28.5 42t-11.5 51h71q3 -32 24 -52t65 -20t64 20t23 52h71v0z" />
    <glyph glyph-name="caron" unicode="&#x2c7;" 
d="M148 725h95l79 -53l79 53h96l-132 -116h-88z" />
    <glyph glyph-name="circumflex" unicode="&#x2c6;" 
d="M497 609h-96l-78 54l-80 -54h-95l132 116h88z" />
    <glyph glyph-name="dotaccent" unicode="&#x2d9;" 
d="M368 710v-99h-91v99h91z" />
    <glyph glyph-name="dot" 
d="M378 725v-109h-92v109h92z" />
    <glyph glyph-name="hungarumlaut" unicode="&#x2dd;" 
d="M216 609h-76l90 116h117zM375 609h-77l91 116h116z" />
    <glyph glyph-name="commaaccent" 
d="M275 -36h95v-95l-44 -90h-54l39 96h-36v89z" />
    <glyph glyph-name="ogonek" unicode="&#x2db;" 
d="M395 0q-38 -19 -63 -39t-25 -43t20 -31.5t45 -8.5q30 0 50 9v-61q-13 -5 -30.5 -8.5t-38.5 -3.5q-22 0 -45 5t-41.5 15.5t-30.5 28t-12 42.5q0 30 19.5 52.5t60.5 42.5h91z" />
    <glyph glyph-name="ring" unicode="&#x2da;" 
d="M322 760q38 0 64.5 -24t26.5 -61q0 -38 -26.5 -61.5t-64.5 -23.5t-64 23.5t-26 61.5q0 37 26.5 61t63.5 24zM322 718q-17 0 -30 -12.5t-13 -30.5q0 -19 13 -30.5t30 -11.5t30 11.5t13 30.5q0 18 -13 30.5t-30 12.5z" />
    <glyph glyph-name="tilde" unicode="&#x2dc;" 
d="M388 673q20 0 32.5 11t15.5 34h71q-10 -62 -43.5 -87.5t-73.5 -25.5q-23 0 -41 7.5t-33.5 16t-30 16t-30.5 7.5q-40 0 -45 -44h-71q9 58 40.5 85t74.5 27q23 0 40.5 -7.5t32.5 -16t29.5 -16t31.5 -7.5z" />
    <glyph glyph-name="caron.slovak" 
d="M317 555h-58l30 170h98z" />
    <glyph glyph-name="acute.case" 
d="M294 761h-90l109 113h129z" />
    <glyph glyph-name="breve.case" 
d="M481 874q-7 -52 -44.5 -85t-114.5 -33q-75 0 -113 33t-44 85h77q8 -58 81 -58q71 0 80 58h78z" />
    <glyph glyph-name="caron.case" 
d="M148 874h106l69 -56l69 56h106l-134 -113h-84z" />
    <glyph glyph-name="cedilla.case" 
d="M238 -136q13 -6 28.5 -10t29.5 -4q22 0 41.5 7t19.5 25q0 15 -13 22.5t-31 7.5q-8 0 -19 -2t-19 -7l-30 17l51 83h53l-32 -51q15 3 30 3q36 0 56 -18.5t20 -49.5q0 -20 -9.5 -35t-25 -25.5t-35 -16t-38.5 -5.5q-20 0 -44 3.5t-49 15.5z" />
    <glyph glyph-name="circumflex.case" 
d="M498 761h-106l-69 56l-69 -56h-106l134 113h84z" />
    <glyph glyph-name="dieresis.case" 
d="M254 868v-99h-91v99h91zM483 868v-99h-91v99h91z" />
    <glyph glyph-name="dotaccent.case" 
d="M368 869v-99h-91v99h91z" />
    <glyph glyph-name="grave.case" 
d="M204 874h129l109 -113h-90z" />
    <glyph glyph-name="hungarumlaut.case" 
d="M210 761h-90l109 113h129zM377 761h-91l110 113h129z" />
    <glyph glyph-name="macron.case" 
d="M173 779v76h300v-76h-300z" />
    <glyph glyph-name="ogonek.case" 
d="M395 0q-38 -19 -63 -39t-25 -43t20 -31.5t45 -8.5q30 0 50 9v-61q-13 -5 -30.5 -8.5t-38.5 -3.5q-22 0 -45 5t-41.5 15.5t-30.5 28t-12 42.5q0 30 19.5 52.5t60.5 42.5h91z" />
    <glyph glyph-name="ring.case" 
d="M323 921q38 0 64.5 -23.5t26.5 -61.5q0 -37 -26.5 -61t-64.5 -24t-64.5 24t-26.5 61q0 38 27 61.5t64 23.5zM323 879q-17 0 -30.5 -12t-13.5 -31q0 -18 13.5 -30t30.5 -12t30 12t13 30q0 19 -13 31t-30 12z" />
    <glyph glyph-name="tilde.case" 
d="M389 828q41 0 47 45h71q-10 -62 -43 -87.5t-73 -25.5q-23 0 -41 7.5t-34 16t-30.5 16t-30.5 7.5q-40 0 -45 -44h-71q9 59 40.5 85.5t74.5 26.5q23 0 40.5 -7.5t33 -16t30 -16t31.5 -7.5z" />
  </font>
</defs>
</svg>
